<svg xmlns="http://www.w3.org/2000/svg"><defs><font id="shining_timesregular" horiz-adv-x="710"><font-face units-per-em="2048" ascent="1638" descent="-410"/><glyph horiz-adv-x="0"/><glyph horiz-adv-x="0"/><glyph horiz-adv-x="0"/><glyph horiz-adv-x="550"/><glyph horiz-adv-x="550"/><glyph horiz-adv-x="550"/><glyph unicode="!" horiz-adv-x="533" d="M2 15q4 14 6 21.5T11 48l2 8q1 6 3.5 17.5T26 110q4 13 22.5 17t40.5 1 38-10 14-15q-7-27-10-38-2-8-4-15t-5.5-18T112 1q-5-13-23-16t-39 .5-35.5 12T2 15zm86 237q17 104 86.5 312t139 392.5T398 1174q13 20 47 29t61 1 18-37q-40-95-97-247-53-140-110.5-285T207 382q-25-50-49.5-74.5T106 265q-9-6-18-13z"/><glyph unicode="&quot;" horiz-adv-x="537" d="M313 1291q6 18 27 24.5t41 1 22-24.5q-3-41-12-99-9-56-14-107.5t3-78.5q-19 17-38 70.5t-28.5 114-.5 99.5zm134 0q6 18 27 24.5t41 1 22-24.5q-3-41-12-99-9-56-14-107.5t3-78.5q-19 17-38 70.5t-28.5 114-.5 99.5z"/><glyph unicode="#" horiz-adv-x="1079" d="M.5 390.5Q0 410 24.5 433T86 465q57 13 175 22 14 36 28 71-49-4-86.5-8T124 540q-36-3-36.5 16.5t24 42.5 61.5 32q29 6 65 11t91 10q50 116 86.5 190.5T462 929q36 37 71 45t46.5-27T558 823q-6-17-13-34-18-49-48-124 23 1 55.5 2t62.5 2h35q103 236 128 267 30 31 64.5 34t50.5-29-10-109q-6-16-13-33-18-50-49-127 114-1 167-12 45-10 46.5-31.5t-19-39T972 573q-71 8-188 8-6-14-12-29-9-24-20-48 23-1 40-1 63 0 100-8 45-9 47-30.5t-18.5-39T877 409q-47 5-104 4-27-1-61 0-10-24-20-46-63-145-115-236t-98-78q-31 15-10 114t76 243q-18 0-42-1-30-1-61-1.5t-54-2.5q-21-45-40-88-54-129-98.5-206.5T163 45q-31 15-11 111t73 237q-56-4-99-8.5T36 374Q1 371 .5 390.5zM429 480q24 1 58 1.5t64 1.5q17 0 30 1 14 36 29 72-19-1-45-1-28-1-56.5-2t-49.5-2q-14-35-30-71z"/><glyph unicode="$" horiz-adv-x="915" d="M1 293.5Q0 368 32.5 422t79.5 61q-31-72-10-148t139-130q39-15 106.5 1t116 60T497 378q-13 39-47.5 81.5T373 546q-38 39-70.5 78T252 701q-42 103-20 205t104 170q46 33 126 55.5t126 20.5q3 7 11 23 13 27 28 59t23 43q22 2 50.5 2t52.5-.5 32-1.5q0-6-12-30.5t-27-53.5q-12-22-20.5-39t-9.5-22q76-10 126-40 36-20 54.5-86.5T855 824q-13 104-72.5 150.5t-142.5 47T474 991q-83-33-93-82.5T410.5 800 513 679q105-104 150.5-208t6.5-196Q614 159 480.5 97.5T211 61q-2 0-5 1-2 1-4 1l-19-38q-6-13-10-21-25-1-67.5-.5T40 5q4 9 13.5 29.5t20.5 43T93 115q-20 15-38 36Q2 219 1 293.5z"/><glyph unicode="%" horiz-adv-x="1320" d="M6 139q-6 30 131.5 146.5t343 268 404 285.5 314.5 199q64 34 91 40.5t28.5-5.5-12-32-32-39-30.5-27q-176-123-414-296-195-142-379-272.5T144 199 6 139zm354 705.5q6 84.5 60.5 174t135 144T720 1195q58-17 74.5-78.5T764 954q-32-65-87-130t-122.5-98.5T419 723q-65 37-59 121.5zm143 54Q474 815 505 791q41-18 94.5 28T696 936.5t53 131-35 69.5q-62-2-122-78.5t-89-160zM553 189q6 84 60.5 174t135 144.5T913 540q57-18 74-79t-31-162q-31-65-86.5-130.5T747 69.5 612 67q-65 38-59 122zm143 54q-29-84 2-107 41-18 94.5 28T889 281.5t53 131-36 69.5q-61-2-121-78.5T696 243z"/><glyph unicode="&amp;" horiz-adv-x="995" d="M9 287Q7 397 63.5 480.5t142 138 171 78T518 711q-114 21-190 106.5T273 1029q34 116 141 175.5t240.5 54.5 245.5-83q21-14 48-46t37-81.5T966 931q-25 69-89 123t-146 89q-82 33-151 21.5T465 1111q-54-49-61-117.5T454 860t195-105q50-16 53-58t-22.5-78-61.5-34q-145 32-246.5-1.5T214 478.5 152 326t41-145q54-65 156-79t216 20 203 112q-22 8-41 27t-20 44q2 65 40 103.5t81.5 36T888 382q44 35 41.5 95.5T893 584q71-50 80.5-108T958 365.5t-57.5-86T854 245q-24-63-88-118.5t-137.5-93T502-14q-126-23-243 4T71 92 9 287z"/><glyph unicode="'" horiz-adv-x="412" d="M318 1292q2 19 22 24.5t41-1 27-24.5q9-39-.5-99.5t-28.5-114-38-70.5q8 27 3 78.5T330 1193q-9 58-12 99z"/><glyph unicode="(" horiz-adv-x="702" d="M8 140.5Q0 291 64.5 492.5t178 397T497 1217t287 144q28 2 63.5-9.5T897 1310q-131-12-267.5-127T377 893.5t-184-365-63-353T241-79q-42-2-124 27Q16-10 8 140.5z"/><glyph unicode=")" horiz-adv-x="702" d="M7-28Q138-16 274.5 99T527 388.5t184 365 63 353.5-110 254q41 2 123-26 101-43 109-193.5t-56.5-352-178-397T407 65 120-79q-28-2-63.5 10T7-28z"/><glyph unicode="*" horiz-adv-x="464" d="M5 941q-5 10 12 32.5t46 49 58 49.5q-45 6-76.5 18.5T23 1125q13 18 60 18t93-9q19 49 45.5 89t49.5 39q15-5 8.5-44.5T254 1131q34 5 70 6.5t59.5-4.5 19.5-23q-7-18-51-30.5t-94-17.5q20-39 28-80t-15-57q-20-8-43.5 21.5T187 1015q-4 10-9.5 10.5T161 1016q-29-24-62-46t-59.5-32T5 941z"/><glyph unicode="+" horiz-adv-x="746" d="M4.5 615.5Q9 628 18 638.5T33 651q33 11 101 16.5t151 7.5q39 92 70 158t39 76q31 28 68 21 37-4 37-25.5T486 854l-6-14-2-6q-22-59-62-157 83 0 148-1.5t92-3.5q29-3 32.5-22T672 613.5 611 597h-4q-119 1-225 1-50-118-102-205.5T191 313q-23 12-1.5 94T254 596q-123-2-222-9-22-2-27 7t-.5 21.5z"/><glyph unicode="," horiz-adv-x="390" d="M0-29q28-16 63.5-18T130-15q5 6 2 9.5T121 1q-9 3-18.5 10T88 33t0 42q15 28 45 35.5t53.5-8.5T207 44q-8-57-47.5-86T74-68.5 0-29z"/><glyph unicode="-" horiz-adv-x="578" d="M0 321.5q0 12.5 8 29T25.5 380 40 395q47 11 139 16.5t180 5.5 122-4q20-4 19-16t-15.5-29-33.5-36l-4-4q-261 5-432-20-15 1-15 13.5z"/><glyph unicode="." horiz-adv-x="320" d="M0-4q4 17 7.5 28T19 55q3 7 7 17 13 5 37.5 6t47-1 30.5-7q-8-22-14-38-8-17-15-39-11 2-33 3.5T34.5-2 0-4z"/><glyph unicode="/" horiz-adv-x="910" d="M9.5-42Q0-14 24 20q9 11 18 23 169 224 425.5 558.5T888 1138q62 73 100 85t48.5-10-9.5-51q-43-58-133-179-181-247-414.5-557T117-35Q79-75 49-72.5T9.5-42z"/><glyph unicode="0" horiz-adv-x="1131" d="M29 392q29 155 120.5 321t229 306T683 1235q157 65 257 26t145.5-145 37-241-68.5-260q-94-191-221-333T556 66.5 245 8Q99 26 49.5 131.5T29 392zm150-58q-10-114 74-159 94-40 215 28.5t235.5 199 189 277.5 77 264T869 1103q-86 27-199-44.5t-222-199T264 590t-85-256z"/><glyph unicode="1" horiz-adv-x="744" d="M5 98q21 76 135.5 302T372 844.5 518 1115q3 6 3 7 4 16-22.5 17.5t-67-7.5-79-21.5T292 1086q21 95 97.5 139.5t163 55T693 1283q62-8 59.5-56.5T704 1097q-92-173-252-502Q305 292 166 20q-20-33-60.5-26t-73 37T5 98z"/><glyph unicode="2" horiz-adv-x="1262" d="M20 107q68 124 182.5 240.5T452 570t262 198q125 91 216.5 165t123 128-22.5 84q-59 29-175 22.5T637 1124q-74-34-93.5-92.5T538 940q-89 16-103.5 72t23.5 117.5 105 91.5q97 40 218.5 56t235 6 186-49 70.5-108q-7-78-92-174T968.5 753 706 550q-120-90-220-170T332 236q-30-39 22.5-56.5T507 159t211.5 1.5T919 170q63 4 97 5 23-27-2.5-65.5t-65.5-68T885 12q-54 2-187-2-108-4-233-5t-234.5 6.5T60.5 41 20 107z"/><glyph unicode="3" horiz-adv-x="1100" d="M1.5 201.5Q3 277 33.5 341t68.5 89q-30-123 14-198t142.5-94.5T491 163q131 48 225 138.5T824.5 478t-92 120T355 567q-31-2-40 29.5t4.5 74T369 744q13 10 52.5 25.5T501 800q35 13 54 21 69 29 153 69.5T859.5 978t87.5 95q17 52-52.5 73T704 1157.5 446 1108q-53-16-138-51t-126-56q7 18 13 34 23 75 57 116t137 77q126 45 261.5 57t247.5-9.5 169-76.5 28-144q-55-126-183.5-211T656 737q69 11 147-19 141-60 159.5-181.5t-68-251-260-214T218 0Q98 11 49 68.5t-47.5 133z"/><glyph unicode="4" horiz-adv-x="1015" d="M1.5 572q1.5 24 20 55.5T55 679q44 62 145.5 165t235 208.5 273 174T969 1287q62-6 57-49.5T975 1114q-79-149-215-428h64q-1-2-2-3-13-18-22.5-32T776 615t-39-62h-42Q561 279 437 36q-20-32-54.5-23t-61 41.5T301 124q12 47 72.5 172.5T515 578q-121-1-253.5-9.5T37 551q-37-3-35.5 21zM223 685q72 5 174.5 10t182.5 6q66 124 122 229.5t85 159.5q19 35 19 36-58-1-186.5-91t-247-196T223 685z"/><glyph unicode="5" horiz-adv-x="1173" d="M16 314q16 103 98 168-47-129 4.5-226.5T336 151q144 3 255 82.5t168.5 187T800 616 671 724t-340-78q-27-25-80.5-34.5T156 614t-29 53q22 56 94.5 191t152 263T497 1284q15 7 114.5 11t230 4.5 237.5-1.5 136-6q-16-20-30-39-22-33-68-86l-537-4q-64-82-104-146t-78-130q-19-34-41-72 257 62 400 24t188.5-138T957 475 827.5 234.5t-235-181T288 6Q129 32 64.5 121.5T16 314z"/><glyph unicode="6" horiz-adv-x="1103" d="M49.5 159Q0 276 54 438.5T232 770q127 173 280 298.5t316.5 182T1150 1272q-50-54-76.5-77t-41.5-27.5-32-2.5q-15 1-39.5-1.5T892 1147q-139-52-286-175.5T380 750q115 73 227.5 89T801 812.5 905.5 668 866 402Q787 203 638 93.5T286 11Q99 42 49.5 159zm154 87.5Q225 173 309 138q96-25 182.5 18t151 124 95 169.5 14 155T658 686q-49 12-87 6t-80-20l-6-2q-102-33-173-105.5T211.5 406t-8-159.5z"/><glyph unicode="7" horiz-adv-x="1152" d="M2 149q2 37 4 50 106 129 266.5 293.5T591 813q205 203 299 307-38 29-131 36t-208.5-2-218.5-27q-34-6-84-26.5t-87-38.5l12 36q16 60 46.5 109.5T324 1277q128 29 289.5 30t300-13.5T1109 1259q53-17 60.5-47t-50.5-89Q853 852 523 508 282 258 54 24 29-1 17 17T2.5 73.5 2 149z"/><glyph unicode="8" horiz-adv-x="1186" d="M9 231q16 121 86.5 208.5T252 586t149 92q58 31 65 43 0 6-18 25-31 31-63.5 91.5T375 980q20 75 90.5 150T645 1256t241 51q181-6 264.5-81t31.5-225q-52-136-128.5-206.5T877 666q-26-17-53-34 85-79 105.5-190T888 227Q803 99 661.5 38T348-28Q195-25 97.5 43.5T9 231zm187-5.5Q209 158 316 105q66-28 153.5-7T635 174.5 750.5 304t4.5 150.5T589 595q-27 10-94.5-20.5t-142-87-122-125.5T196 225.5zM554 985q-14-71 24-133.5t94-99.5q26-14 92.5 20t138 95.5 113 130 18 123.5-148.5 76q-68 9-143-22t-128.5-83T554 985z"/><glyph unicode="9" horiz-adv-x="1067" d="M0-11q15 68 42 111t92 64q86 26 200 77.5t219.5 125T720 533q-107-67-220.5-85.5T298 465 179 598.5 206 860q75 201 236 322.5T811 1286q182-25 234-145.5t0-291T863.5 505t-311-305.5T163 24Q73-1 25-7 11-9 0-11zm332 781q-19-94 24-147 63-68 151-57.5t175.5 75T832 801q39 61 53 128.5t-9.5 124.5-96.5 86q-108 23-202.5-32t-160-149.5T332 770z"/><glyph unicode=":" horiz-adv-x="308" d="M136 305q4 17 7.5 27.5T155 364q2 7 6 17 12 5 36 6t46-1 29-7q-8-22-14-38-7-17-14-39-11 2-32 3.5t-42.5 1.5-33.5-2zm20 150q4 17 7.5 27.5T175 514q2 7 6 17 12 5 36 6t46-1 29-7q-8-22-14-38-7-17-14-39-11 2-32 3.5t-42.5 1.5-33.5-2z"/><glyph unicode=";" horiz-adv-x="308" d="M52 249q27-15 63-17.5t66 32.5q6 6 2.5 9.5T173 280q-9 3-18.5 10T140 312t0 42q15 28 44.5 35.5T238 381t21-59q-8-57-48-85.5T125 210t-73 39zm104 206q4 17 7.5 27.5T175 514q2 7 6 17 12 5 36 6t46-1 29-7q-8-22-14-38-7-17-14-39-11 2-32 3.5t-42.5 1.5-33.5-2z"/><glyph unicode="&lt;" horiz-adv-x="655" d="M10 338q12 32 93.5 90t186 120.5T476 655t95 48q19 2 29.5-7t16.5-24q10-27-9-44t-48-30q-15-7-29-16-42-25-103-60-133-73-272-167 76-45 157-114.5T443 125q17-16 26-24 17-18 6-39.5t-35.5-30T389 43q-60 77-140 132.5T103 268q-43 24-68.5 41.5T10 338z"/><glyph unicode="=" horiz-adv-x="536" d="M.5 219.5Q0 232 8 248.5T25.5 278 41 293q47 12 138.5 17t179.5 5.5 122-4.5q20-4 19-16t-15.5-29-33.5-36l-3-3q-262 4-433-21-14 1-14.5 13.5zm34.5 152q0 12.5 7.5 29T60 430t15 15q47 12 139 17.5t179.5 5.5 121.5-5q21-4 19.5-15.5T519 419t-33-36l-4-4q-261 5-433-21-14 1-14 13.5z"/><glyph unicode="&gt;" horiz-adv-x="655" d="M14 60q-10 27 9 44t48 30q15 7 29 16 42 25 103 60 132 73 272 167-76 45-157 114.5T188 607q-17 16-26 24-17 18-6.5 39.5T191 701t51-12q60-77 139.5-132.5T528 464q43-24 68.5-41.5T620 394q-12-32-93-90T341.5 183.5 155 77 59 29q-18-2-28.5 7T14 60z"/><glyph unicode="?" horiz-adv-x="889" d="M28-16q4 13 6 20.5t3 12 2 8.5q1 5 4 16.5T52 79q4 13 23 16.5t41 1 38-9.5 14-16q-7-26-10-37-2-8-4-15T148.5.5 139-31q-5-12-23-15.5T77-46 41.5-34 28-16zm31 193q-7 8 5.5 48t39.5 94 64 104q43 53 112 96.5T427 603q116 57 210.5 127.5T758 909q14 44-27 86t-124.5 53.5T407 1015q-93-40-158.5-88T167 856q17 118 82.5 185.5T399 1138t158 33q153 5 242-66.5T888.5 923 776 704q-62-57-141-105.5T477 506q-136-71-208-134-27-26-43.5-58.5T198 251q-18-52-42-74-38-2-69-1-13 1-28 1z"/><glyph unicode="@" horiz-adv-x="1149" d="M16 395.5Q32 529 81 629q60 124 170 243.5T507 1069t316 75q134-7 206.5-69t96-151 8.5-177q-14-83-66-179T940.5 390t-161-123T612 253q-52 22-60 98-85-69-154-50.5T314 406t63 223q96 152 232 156 30-2 53.5-19.5T697 729q1 1 1 2 1 1 1 2 22 32 50.5 35.5t48-10T812 725q-9-25-45-90-30-56-61.5-119.5t-44.5-111 10-57.5q33-7 98.5 37.5T900 506t95 167q41 139-4.5 237T810 1024q-111 9-224-46.5t-208-150T225 625q-80-154-75.5-264t62-176.5T349 96q84-21 182-12t172 23q50 9 74 10-13-39-97-79T483.5-22 273-19Q110 29 55 145.5t-39 250zm410 96q-7-43.5 19-69t111-5.5q5 55 29.5 109T662 666q-30 43-73 40t-82.5-39.5T448 575q-1-2-1-3-14-37-21-80.5z"/><glyph unicode="A" horiz-adv-x="1338" d="M1 182Q0 293 68 400q68 109 177 165 101 48 185 51 19 1 38 1 61 0 109-8 28-3 52-5 153 245 325 450 34 40 111 107t171 126q92 59 176 75 16 3 32 3 61 0 99-51 10-11 10-31 0-35-30-95-165-321-287-604.5T1006-63q-6-14-34.5-6.5t-63.5 30-60 52T823 72q24 91 64 194t75.5 180.5T1007 540l-2-4q-7-17-35.5-44.5T874 447q-37-9-90-9-44 0-99 6-35-52-76-120-61-106-135.5-205.5T307-24q-37-17-76-17-60 0-128 39Q1 67 1 182zm161 125q-2-13-2-26 0-49 28-81 24-29 63-28 17 0 36 5 64 18 141 131 19 29 59 85 26 36 47 67 14 15 42.5 13t47.5-8q-24 7-44 14-48 19-109 19-63-4-127.5-24.5T239 425q-68-53-77-118zm600 264q46-12 84-11 34 0 64 8 62 20 99.5 53.5T1060 672q2 3 4 5 43 93 101 203 76 145 127 261 8 18 8 27t-9 9q-17 0-64-32-50-37-139.5-139T907 783.5 762 571z"/><glyph unicode="B" horiz-adv-x="1396" d="M7 824q7 88 37 160 63 145 160 228.5T407 1330q94 31 174 31 10-1 21-1 89-4 136-36 17-15 17-41 0-15-6-35-17-52-41-99-10-20-15-33 14 14 31 28 65 62 177 125.5t272 73.5h12q155 1 201-75 30-48 31-110 0-38-12-80-30-110-102-204-81-100-168-162t-122-79q104-53 167.5-123t71.5-158q1-11 0-22 0-102-58-183-64-89-170-147-106-60-222-82-65-12-123-12-47 0-91 8Q420-51 386 22q-12 26-12 55 0 55 41 125 65 103 263.5 181.5T1109 485q-48-23-138-56-94-35-197.5-80.5t-177-99T516 135q2-59 96-77 37-7 77-7 63 1 139 17 122 28 212 100 84 69 84 180v15q-5 51-38 98-3 5 5.5 11t19 11.5 16.5 7.5q-3 0-10-1-15-2-32-3.5t-24 3.5l-2 2-2 2q-51 51-146 88-71-34-155-47-32-5-60-5-46 0-84 14-60 21-60 91 0 41 45 73 37 26 99 26h17q86-10 151-35 206 100 331 237 41 45 73 109 20 42 21 76 0 19-6 35-15 41-95 41-12 0-25-1-204-25-373-164.5T539 713q-85-186-164-354-89-188-118-258-2-4-10-27-10-24-21.5-56t-21-56.5T193-66q-10-10-40 3T88.5-24 33 30 21 78q91 164 176.5 349T365 801q98 226 195 429 0 1 1 2 2 5 4.5 10.5t.5 9.5q-2 2-6 2.5t-8 .5h-5q-46-1-128-49-84-50-168-143-85-93-131-225-29-84-29-180 0-56 10-117-57 41-79 118Q5 718 5 783q0 20 2 41zm648-176.5q0-15.5 62-18.5 20 0 38 3.5t28 11.5q-10 9-27.5 13.5T718 663q-63 0-63-15.5z"/><glyph unicode="C" horiz-adv-x="1205" d="M31 503q31 181 131 357t245.5 306.5T722 1342q61 16 122 16l216-51q100-51 136-145 16-43 17-92 0-60-24-129-45-121-143-186-72-48-143-48-26 1-52 7-97 24-140 171 32-11 74-11 34 0 74 7 90 16 158 65 65 52 73 113 1 10 1 19 1 48-37 84-41 39-123 39h-16q-94-4-235-81-115-66-217.5-183.5T297 660q-62-157-62-341v-6q5-119 73.5-191.5T469 34q68-11 132-11 179 0 322 87 167 105 301 260 4 1 6-10.5t-5-39.5q-3-3-15-17-26-35-91-105T957.5 55 741-63q-104-40-231-40-71 0-150 13Q241-62 169 13.5T61 176q-40 97-40 209 0 57 10 118z"/><glyph unicode="D" horiz-adv-x="1344" d="M14 78q125 252 251 528 147 324 296 618 1 3 3.5 8.5t4.5 11.5 1 9q-2 2-5.5 2.5t-7.5.5h-4q-46 0-128-46-84-47-168.5-138.5T124 847q-30-85-29-185 0-57 9-120-72 56-88 150-9 51-8 98 0 39 6 75 28 158 114.5 264T330 1292q114 58 225 68 27 3 52 2 78 0 136-25 20-10 15.5-41.5t-22-70.5-34.5-72q-12-23-18-37l10 10q10 8 20 18 91 100 203 155 83 41 174 41 31 0 64-5 62-10 105-43 132-112 138-295v-25q0-172-82-361-88-203-242-373T730-16Q614-68 495-68q-75 0-151 21-90 31-100 103-1 11-2 21 0 61 46 121 88 112 301 180 161 52 356 51 62 0 128-5-69-6-178.5-30.5t-222.5-62-194-84-93-96.5q-3-33 54-49 34-7 70-7 107-1 223 63 154 84 274 238 1 1 1 2 2 2 3 4 6 6 22.5 10.5t34.5 7 28 3.5q-13 4-32 6.5t-29 2.5q114 149 174 310 51 137 51 248 1 20-1 39-10 126-107 169-33 12-69 12-52 0-109-25-97-42-190.5-125.5T616 881.5 509 713q-86-187-167-356-89-186-118-256-2-4-11-27-9-24-21.5-55.5t-22-56T158-66q-9-10-35 3T68.5-24.5 23 29.5 14 78z"/><glyph unicode="E" horiz-adv-x="1191" d="M18 210q-5 30-4 60 0 84 38 170 43 90 136.5 169.5T400 735q97 38 193 38 21 0 41-2-104 79-116 189-2 18-3 35 0 90 55 173 78 112 180 160 99 47 203 47h4q154-2 228-73 55-53 55-135 0-29-7-62-29-104-109-153-60-37-120-37-20 1-41 5-81 16-109 110 17-5 38-6 29 0 64 11 61 18 108 61t45 104q-7 38-75 46-14 2-30 2-56 0-122-22-83-28-133-95-53-78-54-136 0-12 3-23 13-65 78.5-111T936 775q62-29 62-67 0-39-40-64-27-17-63-17-15 0-32 3-69 15-135 15-96 0-186-32-152-54-242-157-80-91-80-187 0-13 1-25 27-133 139-179 81-33 176-33 38 0 78 5 142 18 255 76 192 103 345 257 3 0 5.5-4.5t2-16-6.5-30.5q-3-3-16-17-30-33-102-100.5T916 61Q795-18 656-64 553-99 449-99q-36 0-72 4Q217-71 126.5 12.5T18 210z"/><glyph unicode="F" horiz-adv-x="741" d="M5 73q81 177 131 292 43 101 103 234-14-1-42.5-.5T141 600h-10q2 14 11 32.5t18 33.5q9 16 11 21 11 1 35 2 29 1 54 2 12 0 39 1 23 0 43.5 1t25.5 0l-14 2q-30 3-47.5 9.5T298 731q18 38 40 85 39 85 81 175t72 154q-5-1-11-4-30-9-77.5-32t-87.5-68-46-118q-33 35-36 87v15q0 44 15 83 46 98 201 152 155 52 353 72 171 17 323 18 24 0 47-1 173-3 255-17-62-84-111-113-38-23-96-23-16 0-33 2-77 7-155 7-160 0-323-28-13-25-43.5-98T599 919q-31-74-57-136.5T502 691q28 1 59 0 46 0 96-1 84-3 123-6-19-26-35-54-16-29-33-48-62 6-131 8-23 1-45 0-43 0-81-3Q241 108 185-50q-8-15-38-7T81.5-26.5 23 23.5 5 73z"/><glyph unicode="G" horiz-adv-x="1193" d="M10 390q-3 36-3 72 0 66 12 132 31 168 130 326t243.5 272.5T704 1345q56 13 113 13 109 0 217-48 101-48 134-145 14-41 14-86 0-64-27-139-34-89-101.5-150T909 711q-24-6-47-6-50 0-94 27-64 40-92 152 25-8 54-8 44 0 99 18 91 31 155 90 51 45 51 94 0 13-4 27-33 81-137 93-18 2-38 2-89 0-199-46-133-56-253-178T217 668q-31-92-31-191v-9q2-104 55.5-176T418 218q125 5 208 61t137.5 137T858 577q10 19 14 23 8 7 36 17.5t62 19 59 12 27-3.5q-43-84-150-323-1-1-.5 0t1 3 2.5 5q1 3 2.5 7t2.5 7l1 3-1.5-3.5L908 331l-10.5-24.5-17-39-24.5-56-32-75.5q-5-11-10-23-4-10-9-20l-24-56q77 29 134 59 88 51 166 126.5T1202 347q10 11 17 19 6-1 8-10.5t1-21.5-5-22q-77-99-139-157.5T945 48Q868 4 759-47q-9-4-18-9-27-58-50-117-11-29-23-58-34-84-70-148t-81-100q-28-21-61-30t-61-9q-92 0-132 60-28 41-28 96 0 24 6 52 21 82 105 143T542-58q36 15 73 29 10 4 21 9-5-1-16-3t-23.5-5-19.5-6q0 1 1.5 4t3.5 6q1 3 2 5l2 4q7 16 27 56 25 49 51 103t35 82q-80-89-205-122-82-21-152-21-36 0-69 6-131 37-191.5 117.5T10 390zm368.5-740q7.5-24 28.5-25 23 1 43.5 33t36 71 22.5 60l13 40q-37-23-74.5-54.5T387-294q-16-32-8.5-56z"/><glyph unicode="H" horiz-adv-x="1358" d="M25 167q-8 34-8 69 0 80 40 166 57 122 192 199 46 24 98 39 5-9 17.5-22.5t26-25.5 22.5-16q-3 5-7 23t-4.5 35.5T408 655q3 0 6 1h1q45 8 88 8 37 0 73-6 78 154 151 326 63 149 132 291 17 31-3 28-133-18-250-130.5T428 902q-38-98-38-196 0-59 14-118-76 60-90 158-7 50-7 95 0 43 7 82 30 173 140.5 291.5T714 1381q81 26 161 26 66 0 132-18 55-17 59-59 1-6 1-11 0-37-22-85-5-13-11-26-59-141-127.5-301.5T782 625q55-12 97-13 54 0 87 21 59 36 93 100l16 36q80 181 163 359.5t124 239.5q6 9 36 12 20 2 42 2h24q36-2 61-8t25-14q-22-41-129-275.5t-222.5-504T1037 166q-9-33-9-52 0-22 12-26 5-1 10-1 21-1 53 21 40 26 70 53 56 49 106.5 102t78.5 85q16 18 19 21 6 1 9-12t-2-42q-14-16-26-32-76-99-168-177-43-34-99.5-65.5T980-1q-15-2-28-2-70-1-100 53-18 32-18 75 0 44 18 99 42 119 77 204l18 45q10 28 20 46 8 14 17 35-24-48-75-70-22-9-59-10-50 0-129 17-38-74-94.5-168.5T497 144Q424 62 339 20 291-3 240-4q-39 0-80 14Q50 55 25 167zm148 69q13-46 58-45h8q52 4 140 99 84 93 143 241-15 2-31 2-99 0-210-66-70-47-96-114-17-44-17-80 0-20 5-37z"/><glyph unicode="I" horiz-adv-x="583" d="M17 916q17 92 48 157 70 139 175 215t214 102q77 18 142 18 27 0 51-4 84-10 112-44 13-13 13-39 0-33-22-87-150-354-290-669Q345 304 211-6q-10-17-50-1T81.5 43 32 116l14 26q94 211 262 577.5T565 1275q16 31-5 28-155-32-270.5-152T127 883Q95 776 95 691q0-56 14-103-73 57-91 147-9 46-9 93 0 44 8 88z"/><glyph unicode="J" horiz-adv-x="994" d="M16 125q12 70 59 132t127 101q79 37 146 40h27q55 0 118-8l12-2q24-2 44.5-6t44.5-11q-3 1-7 3-10 3-22.5 9T544 397t-4 17q64 148 163.5 362.5T877 1149q40 86 58 123 9 20 6 26.5t-15 4.5q-157-35-269-152T496 881q-30-93-30-181 0-57 13-113-82 65-95 175-4 31-4 63 0 79 24 161 56 193 215 308 156 113 371 113h8q36-2 75-14.5t59-34.5q11-13 11-36 0-38-28-104-117-275-232-522-5-11-23-46-21-44-47.5-99T769 458q-4-9-14-31t-20-43q-6-12-10-20.5t-5-10.5q15-1 29-1 97 0 167 47 80 54 144 136-61-136-160-202-87-59-191-59-12 0-25 1-10-23-18-42-15-33-29-64t-36-72Q540-20 444-100q-69-53-135-64-23-5-46-5-40 0-77 14Q83-116 42-39 12 17 12 77q0 24 4 48zm187 58q-6-20-6-39 0-29 13-54 22-43 63-54 9-3 18-3 33 0 68 33 53 54 83.5 106.5T501 302q-31 8-65 8-24 0-48-4-60-10-107-35-64-37-78-88z"/><glyph unicode="K" horiz-adv-x="1341" d="M13 782q-3 25-3 51 0 92 37 188 47 122 142 218.5T415 1376q37 12 107 22 42 6 83 7 27 0 55-3 68-7 102-49 11-16 11-38 1-13-3-27-10-39-24-65-23-52-33-78.5t-15-42.5q-5-15-12.5-33.5T662 1016t-47-97q85 125 198 224 122 104 245 171t262 75h9q82 1 108-33 12-16 13-35 0-23-18-50-32-49-123-87 40 42 40.5 67.5T1333 1282q-13 3-27 3-56-1-134-45-98-56-188-131T852 989q-17-19-37-41-87-90-151-174 5-95 20.5-208T719 361q23-109 77.5-193T938 66q15-3 31-4 77 0 177 75 56 43 121.5 110T1380 369q6 0 8.5-15.5T1385 314q-131-178-305-285-99-56-182-56-38-1-72 11-110 36-183 145.5T532 376t-40 257q-9-21-36-82.5T393 405q-53-122-104-238.5T215-2q-3-7-5-10v-2q-17-9-53 7T85 41.5 33 114q139 288 295 639 123 274 238 521 8 15 7 21t-10 6h-4q-63 0-149-54-88-56-169-156T119 861q-23-73-23-151 0-61 14-125-84 80-97 197z"/><glyph unicode="L" horiz-adv-x="832" d="M4 142q4 54 40 89 24 24 61 24 18 0 38-6 81 159 173.5 361.5T489 995q77 174 121 270 17 32-3 28-155-35-253-124.5t-148-203T146 747q-4-36-4-67 0-60 13-102-67 48-87 142-10 47-11 95 0 50 11 102 45 214 195.5 341.5T645 1397h7q55-1 97-15 45-16 57-31 12-18 11.5-49.5T795 1220q-91-206-175-405-123-294-260-590l-2-4q-1-3-3-7-7-14-27-13.5t-46 6.5l-24 4q13-4 24-6 28-6 57-22 61-36 107-66 69-47 142-83.5T788-33q61-16 120-15 51 0 102 11-33-56-95-97t-116-46h-11q-136 0-240 50Q439-78 363-23q-75 54-120 65-16 1-50-10-31-10-65-16-11-1-22-1-51 0-76 33Q4 83 4 128q-1 7 0 14z"/><glyph unicode="M" horiz-adv-x="1819" d="M3 834q3 58 9 86 31 163 119 268.5T332.5 1347t221.5 59q16 1 31 1 88 0 149-30 30-19 30-55v-6q-2-41-16-71-91-214-189.5-438.5T417 485q-6-15-10-24-3-7-4-9 1 2 4 9 23 51 117.5 219t227 353.5T1021 1324q65 46 137 54 10 1 19 1 58-1 90-43 19-25 19-68.5t-19-105.5q-79-216-170-420-72-162-142-340 9 21 19 44 45 109 116 257t173 300.5 240 273.5q33 29 69 55 65 46 138 52 8 1 15 1 63 0 97-46 20-26 19-72 0-44-18-105-20-59-43-116l-2-4q-51-128-116-282-81-188-136-331-29-84-58-177.5T1435 112q-1-47 30-46.5t72.5 26T1611 142q144 121 227 229 2 0 5.5-5.5t4.5-17.5-4-32q-80-103-140.5-161T1590 61q-46-33-99-59t-108-33h-11q-56 1-91 49-35 50-35 121v11q9 115 54.5 260.5t97.5 276 81 197.5q8 18 13 29 35 80 72 146 18 32 27 51t3 17q-56-18-133.5-124T1300 749t-156-294.5T1023 209q-23-49-38-78-3-8-7-16-33-70-76-135.5T808-91q-62 3-106 62-40 53-40 128 0 8 1 17 9 107 65 275t122 329 104 247q13 30 18 43 32 75 40 101t-4 20q-46-22-134.5-149.5T685.5 682t-180-325.5T396 131q-30-75-80-121-42-39-91-38-9 0-19 1-66 17-90 77-20 49-20 104 0 12 1 24 5 69 27 114 108 229 217 489 105 252 219 495 15 31-6 29-66-8-153-61.5T236 1096q-79-94-120-222-25-77-24-166 0-58 10-121-62 57-82 123Q3 768 3 819v15z"/><glyph unicode="N" horiz-adv-x="1295" d="M3 846q3 74 19 125 56 177 178 281t260 138q70 17 131 17 59 0 110-16 63-22 63-63.5t-24-93.5q-87-207-162.5-380.5T472 621q3 5 6 12 23 46 78.5 146t135 218T866 1214q94 98 196 142 48 21 97 21 53 0 105-25 65-38 66-99 0-9-2-19-11-74-49-151-8-19-15-37-18-43-67-149-48-107-107.5-241.5T978 392q-50-130-74-219-12-44-12-70t12-34q8-3 18-3 35 0 93 35 74 45 156.5 119.5T1315 370h1l3-3 3.5-7.5 1.5-15.5-3-28q-84-108-205-211.5T856-28q-15-3-28-3-42 0-69 33-26 43-26 112-1 54 15 124 36 160 112.5 347T1008 927q52 117 80 185 17 43 18 58 0 8-5 8h-1q-97-29-196.5-141.5T710.5 768t-173-315.5T401 171q-31-68-55-114-56-72-104-86-14-4-27-4-33 0-60 27-43 49-49 142-1 14 0 28 0 77 26 141 52 120 121 281 164 386 304 689 16 30-5 28-65-1-152.5-56.5T232 1094q-80-98-120-227-23-74-22-155 0-60 12-125-58 45-80 115Q3 764 3 828v18zm463-236q2 2 5 10-3-7-5-10z"/><glyph unicode="O" horiz-adv-x="1137" d="M12 199q-3 25-3 49 1 86 33 174 42 112 128 195 6-6 13-19.5t11-27.5-1-21Q84 409 84 277q0-129 106-183 52-22 107-22 63 0 129 30 124 54 235 169t188 252q116 209 148 361 19 90 19 159 0 47-9 85-22 92-67 126t-119 34q-11 0-23-1-90-6-192-65.5T417 1040q-63-92-87-186-13-49-12-92 0-40 11-75 23-72 103-98-40-5-75-5-131 0-187 68-52 63-52 153 0 34 8 73 28 139 137 272t284 204q131 52 255 60 14 1 27 2 107 0 194-61 119-92 149-246 12-62 12-129 0-98-26-204-44-180-139-350Q892 204 704 68 518-66 309-66h-6Q166-59 95 15T12 199z"/><glyph unicode="P" horiz-adv-x="852" d="M14 757q-6 42-6 81 0 49 9 93 35 174 159 282.5T468 1371q158 46 313 46h19q74-1 165.5-13t172-45 122.5-97q26-40 26-95 0-33-10-72-39-137-147-224T880 729.5 601 636q-63-18-120-37-17-5-37-10-27-6-47-14 7 1 17 3 12 2 23.5 3.5T455 580t1-13Q317 277 202-12h-6q-38 0-74 25-40 27-65.5 60.5T31 127q106 230 210 460 101 225 205 450 10 22 17 35 6 13 13 28t18 41q8 15 42.5 26.5T612 1182q9 1 17 1 30 0 52-9 28-11 22-41-41-92-91-202-39-87-73-163 12 3 30 8 78 21 209.5 69.5T1020 976q126 102 150 166 7 20 8 37 0 37-37 61-53 34-157 46-72 8-157 8-37 0-75-2-218-4-377.5-92.5T131 910q-38-87-38-189 0-60 13-125-78 66-92 161z"/><glyph unicode="Q" horiz-adv-x="1158" d="M0 244q0 125 61 245 33 63 59.5 88t54.5 24q75-5 152-94.5T474 311q72-110 127-165-17 20-23.5 36t6.5 29q154 133 254 312 116 209 148 361 19 91 19 161 0 46-9 83-21 93-67 126-44 34-118 34-11 0-23-1-91-6-193-65.5T406 1040q-62-92-86-186-13-49-13-91 0-41 11-76 24-72 103-98-40-5-74-5-130 0-187 68-53 63-53 154 0 34 7 72 28 139 138 272t284 204q131 52 255 60 14 1 27 1 108 0 194-60 121-92 150-246 12-62 12-128 0-98-26-205-43-180-140-350Q892 218 702 75l2-1q14-10 65-44t102.5-67T938-75q-8-1-16-1-47-4-92-4-47 0-92 4-89 10-169 71-60-30-135-47-67-14-127-14h-15Q141-58 70.5 30.5T0 244zm76-4Q90 138 179 94q51-21 104-21 51 0 105 20 39 14 76 33-10 16-27 46-39 70-98.5 162T220 474q-26 21-47 21-28 0-49-35-51-97-51-183 0-19 3-37z"/><glyph unicode="R" horiz-adv-x="1149" d="M13 885q38 230 218 362.5T691 1404q54 4 103 3 76-1 141-9 106-16 179-39 103-35 145-109 27-48 27-102 0-30-8-62-38-135-147.5-221.5T878.5 724 598 631q-40-12-78-24 7-66 29-164.5T609.5 250 703 102q39-39 88-39 20 0 40 6 53 18 126 78 69 59 124 120.5t80 93.5q4 5 6 8 5 2 9.5-11.5t-.5-42.5q-19-27-39-54-43-59-130-139T818-6q-59-27-114-27-41 0-81 15-63 32-107.5 110.5t-72.5 170T401 424q-1 8-3 22-2 11-3.5 19.5T392 477q-1-9-1-18 2-31-8-57Q281 182 202-22h-3q-39 0-75 27-38 28-63.5 63T34 123q107 231 210 460 100 221 203 445 10 21 17 35 6 12 13 27t18 42q8 15 42.5 26.5T613 1173q9 1 17 1 30 0 52-9 28-11 21-41-37-84-82-185t-84-184q10 3 25 7 77 20 212 70.5T1021 967q93 75 129 129 27 41 27 76 0 12-3 22-13 40-95 64-81 24-201 28-25 1-51 0-96 0-195-13-272-44-397-198-77-95-119-209-23-64-23-144 0-62 14-135-73 63-90 144-10 46-10 89 0 33 6 65z"/><glyph unicode="S" horiz-adv-x="950" d="M24 166q-8 38-7 76 0 80 34 165 51 125 162 210 107 82 257 82h11q-193-74-273-187-61-86-61-164 0-24 5-47 23-83 92-121 70-36 154-38 4 0 8-1 79 1 146 27 70 28 94 76 16 43 16 82 0 52-28 98-48 81-115 149-18 20-35 39-21 23-43 46-6 8-1 14t16.5 11 24.5 9q13 5 23 9-1 0-3 1-15 6-85 7-6 0-10-1h-6.5l-5.5 2.5-7 7.5q-78 80-116 183-15 42-15 90 0 72 33 159 57 129 180.5 198t267.5 72h10q203 0 279-82 47-50 48-120 0-47-22-102-34-80-108-117-53-26-108-26-22 0-44 4-76 15-113 90 18-2 36-2 93 0 159 53 69 55 69 120 0 10-2 20-15 46-107 48h-8q-89 0-191-36-107-36-171-104-40-42-40-95 0-31 14-65 47-95 102.5-166T650 711q66-71 111.5-138.5T812 420q0-7 1-14 0-81-51-193-46-95-146-162T394-36q-36-6-71-6-83 0-160 34Q48 50 24 166z"/><glyph unicode="T" horiz-adv-x="511" d="M3 118q70 167 119 277 34 77 72 165 68 161 145 340 70 162 133 310 8 15 31 20.5t42 6.5q3 1 5 1-23 3-53 3-21 1-39 2-42 4-108 4h-28q-86-1-173.5-16.5T4 1175q41 113 145.5 159t226.5 52q61 3 116 3t103-3q9-1 17-1 86-4 174-11 114-12 211-12 26 0 51 1 55 3 104 7t77 6q23 3 25 2-62-86-120-120-54-32-127-31h-13q-62 2-106 4-56 3-100 3-9 0-18 1-37 0-79-2-69-163-167-381-103-230-203.5-463.5T158-26q-7-15-32.5-2.5t-55 40-50 57.5T3 118z"/><glyph unicode="U" horiz-adv-x="1456" d="M43 933q21 122 102.5 234T370 1350q82 39 198 53 31 4 59 4 78 0 134-29 22-13 30.5-41t-3.5-61q-22-55-76-180.5T590 825Q482 589 444 412q-24-111-25-183 0-43 9-73 13-47 45-47 23 0 55 23 76 56 199 287 45 86 93 183 86 176 179.5 346.5t190 288T1381 1372q37 5 85 8 19 1 36 1 26-1 46-3 34-4 32-21-39-72-135-272t-188-418q-57-132-105-263.5T1086 184q-3-14-6-29-10-36-10-64v-5q1-30 38-39 8-1 17-1 43 0 96 24 63 30 113 68 125 98 227 215l16 18q5 1 8.5-13t-4.5-42q-100-131-234-232-74-55-180-103-94-43-175-43-10 0-20 1-74 11-88 91-4 26-5 56 1 60 19 138 28 116 74 237.5t90.5 218T1127 816q-82-150-146-301-51-121-112-240-94-175-209-257-101-72-192-73-14-1-26 1Q340-42 284 65q-41 78-42 207 0 48 6 102 21 202 154 503 25 56 51 113 43 96 80.5 177.5T593 1291q5 14-10 12-118-18-235-121-118-104-184-260-44-104-45-216 0-58 12-119-99 72-99 231 0 53 11 115z"/><glyph unicode="V" horiz-adv-x="1187" d="M16 896q16 92 49 156 57 116 140.5 187.5T381 1345t175 40q22 2 41 1 51 0 78-12 37-16 43-53 2-14 2-29 0-47-16-114-3-13-6-27-13-69-29-145-39-190-71-390-26-164-27-307 0-32 2-63 3-80 15.5-103.5t30-10.5 34.5 42.5 30 56.5q7 15 12 23 37 64 90 163 93 175 216.5 386.5t254 380T1501 1395q61 19 116 19 11 0 21-1 64-4 104-16.5t38-16.5q-108-43-213.5-145T1371 1004q-96-138-181.5-282.5T1030 445q-75-137-137.5-240.5T781 53q-37-38-85-65-37-21-80-21-13 0-26 2-95 19-137.5 88.5T397 230q-12 82-12 180 1 71 7 149 14 187 47 370t69 314q1 4 2 7 5 18 2.5 20.5T493 1265q-6-3-14-6-127-52-220-161T126 862Q94 755 94 670q0-56 14-103-72 57-90 147-9 46-10 93 0 45 8 89z"/><glyph unicode="W" horiz-adv-x="1593" d="M16 896q16 92 49 156 78 153 205.5 229t256.5 96q73 11 131 11 46 0 82-6 75-14 74-40 0-3-1-6-62-124-136-320T556 614q-33-145-33-263 0-51 6-97 8-61 20-70 1-1 3-1 12 0 38 60 18 42 44 105 54 134 131.5 305T932 965t179 184q31 13 85 17 15 1 29 0 37 0 69-6 46-9 55-33-139-207-215-469-67-231-66-386 0-21 1-40 7-74 30-74h3q26 6 62.5 60.5T1239 340q6 11 12 21 30 53 73 130 86 158 204 356t242.5 355 231.5 194q60 16 113 16h23q62-4 100.5-16t39.5-15q-85-31-168.5-101.5T1949 1114q-106-133-194-275t-147-251q-27-49-52-95-76-144-138-240-81-126-161-205t-175-81q-89 2-125.5 79T920 238.5t20.5 234 46.5 204 42 103.5q-34-37-70-116t-76-180q-48-122-103-240-54-118-118-196-63-77-137-76h-2Q412-18 368 86q-38 92-39 226 0 18 1 38 6 160 41.5 338t82.5 332.5 87 247.5q1 3 2 5 2 5 1.5 5.5t-6.5-.5q-2-1-5-2-146-40-254-156.5T126 862Q95 754 95 669q0-56 13-102-72 57-90 147-9 47-9 94-1 44 7 88z"/><glyph unicode="X" horiz-adv-x="1065" d="M7 140q62 186 488 589-25 129-39.5 227.5T434 1156v8q0 48 22 85 24 40 58.5 63.5t61.5 27 30-16.5q3-58 13.5-151.5t21.5-181T658 862q1-11 3-24 2-26 6-44v14q-1 16 3.5 32.5T693 873q175 149 311.5 280t190.5 214q11 9 37 11.5t54.5 0 48-7.5 18.5-11q-10-21-22-43l-6-12q-41-74-212-232T678 686q1-13 3-25 14-111 38-232t75-227T937 30q114-76 249-76 53 0 110 12-199-90-334-90-52 0-94 14-152 48-228.5 226.5T519 560Q284 343 186.5 206T79-6q-4-21-18-10.5t-29.5 39T8 83.5 7 140z"/><glyph unicode="Y" horiz-adv-x="1311" d="M6 894q25 179 122 291.5T349.5 1351t230.5 55q72-1 117.5-21t55.5-36q7-13 7-31 0-15-4-34-10-41-29.5-84.5T692 1126l-10-20Q575 871 548 705q-12-70-12-122 0-71 22-109 19-32 50-32 32 0 77 34 89 66 214 296 58 111 105 206 71 146 131.5 245.5T1264 1360q27 13 83 18 23 2 46 2 31 0 61-4 51-7 62-29 6-21-1-52.5t-18-60-18-42.5q-41-87-104-219-74-157-150.5-315.5T1099 406q-5-11-25-46-24-44-54.5-99T970 168q-4-9-16-30.5T931 95q-7-13-11.5-21.5T914 63q15-1 29-1 97 0 169 47 84 54 154 136-70-136-173-202-92-59-196-59-12 0-25 1-11-23-20-42-17-33-33.5-64T778-193q-69-117-171-197-72-53-139-64-23-5-45-5-41 0-77 14-100 39-136 116-24 49-24 102 0 30 8 62 18 70 69 132T396 68q81 37 148 40h27q56 0 118-8 5-1 11-1 12-2 41.5-7T793 79q-4 2-10 4-19 6-34 17.5t-5 36.5q105 221 215 414 73 130 143 265 0 1-7.5-13t-20.5-39q-28-51-60.5-111.5T965 565Q839 349 695 280q-68-32-126-32-66 0-120 41-101 77-101 300v4q1 226 165 601 4 9 15 26 10 18 20.5 36.5t14 32-5.5 14.5q-55 0-141.5-50t-170-144T117 883q-28-81-28-175 0-58 11-121-58 53-79 111T0 807t6 87zM386-107q-9-24-9-47 0-24 10-46 19-43 59-54 9-3 18-3 33 0 70 33 57 54 90.5 106T691 12q-30 8-64 8-23 0-49-4-60-10-108-35-67-37-84-88z"/><glyph unicode="Z" horiz-adv-x="1052" d="M42 256q27 32 66 32 19 0 42-8 113 96 237 189 181 132 357.5 297t315.5 410q14 24 3 42.5t-56 35.5q-69 22-166 22-89 0-201-18-234-40-394-134 76 140 200 215 60 31 184 43 84 8 175 8 44 0 90-2 141-6 248-33t131-76q9-25-2-62t-34-80q-83-153-225.5-307T719 543.5 457 321q-81-67-116-98-8-8-21.5-5t-26 10-19.5 11q15-11 31-22 14-9 27-19 123-94 276-160 154-66 300-88 52-8 97-8 83 0 146 25-131-143-273-157-23-2-46-3-122-1-256 63Q416-54 231 72q-79-36-129-36-28 0-48 11Q0 78 0 142q1 66 42 114z"/><glyph unicode="[" horiz-adv-x="673" d="M33.5 6.5Q0 111 33.5 281.5t112 363 180.5 364T532 1286t188 103q18 2 42-2t41-15q16-11 14.5-26.5t-13.5-26-28-6.5q-73 16-174-98.5T400 914 224.5 530.5t-95-346.5T168-6q47-28 54.5-55T189-93Q67-98 33.5 6.5z"/><glyph unicode="\" horiz-adv-x="910" d="M11 1213q11 22 49 10t99-85q164-202 420.5-536.5T1005 43q10-12 18-23 24-34 14.5-62T998-72.5 930-35Q801 116 567.5 426T153 983q-90 121-133 179-20 29-9 51z"/><glyph unicode="]" horiz-adv-x="673" d="M16.5-49Q18-34 30-23.5T57-17q74-16 174.5 98.5T433 382t175.5 383.5T704 1112t-39 190q-46 29-54 56t34 31q122 6 155-98.5t-.5-275.5-112-363.5-180.5-364T301.5 10 114-93q-19-1-43 2.5T30-76Q15-64 16.5-49z"/><glyph unicode="^" horiz-adv-x="425" d="M105 1055q13 15 32 39 42 52 99 118t108 114q48 40 52-13 8-95 19-180 8-72 10-100-13 2-31.5 13.5t-33 25T345 1093q-1 22-2.5 50.5T339 1222q-23-19-68-68.5t-82-95.5q-20-1-32-2-10-1-22-1h-30z"/><glyph unicode="_" horiz-adv-x="609" d="M.5-10Q0 0 7 13t16.5 22.5T39 46q46 3 127.5 3.5t159 0T438 48q5-3 1.5-16.5T426.5 3 403-18q-194 1-315-2-36 0-73-1Q1-20 .5-10z"/><glyph unicode="`" horiz-adv-x="165" d="M0 1374q0 19 19.5 25.5t42 .5 31.5-25q11-43 21-103 10-58 22-111.5t29-81.5q-26 19-63.5 74t-68 118T0 1374z"/><glyph unicode="a" horiz-adv-x="855" d="M-38 148q-1 16-1 31 0 69 21 133 26 78 44 110 49 94 126 164t163 100q43 15 84 15 40 0 79-14 38-18 40-53 0-5 1-11 0-29-12-57-10-21-16-34t-5-10q10 16 21 44 13 24 23.5 46t12.5 26q1 1 2 3 2 4 4 8.5t5 6.5q7 6 31 9t52.5 2 49.5-5.5 24-11.5q-13-24-49.5-103.5t-76-176T524 198q-13-45-14-70 0-17 7-24 12-8 27-8 28 0 70 27 64 42 136 113t127 135q1 0 3.5-1.5t4.5-7.5 2-17-4-29q-53-71-121-141.5T595 45q-20-13-60-27-41-14-81-19-11-1-20-1-27 0-44 10-19 14-26 37t-7 46.5 3 40.5 4 19q-20-48-79-90.5T158 0q-28-7-52-7Q71-7 44 8q-76 54-82 140zm156 129q-12-36-11-67 0-45 25-77 11-10 26-10 20-1 46 15 48 28 99 85t86 118q40 69 58 122 11 32 11 53 0 14-5 24-22 35-57 35-20 0-46-12-68-33-135-115t-97-171z"/><glyph unicode="b" horiz-adv-x="722" d="M-106.5 78q-11.5 27 3.5 60 23 47 70 152T72 528q94 215 176.5 397T352 1132q10 8 43 10 13 1 26 1 21 0 41-2 34-3 44-11-1-5-36.5-81.5t-84-179T298 684t-48-100q-15-32-32-66 44 78 120 138 60 47 130 46 19 0 39-3 78-19 103-114 7-27 7-59 0-80-44-189-2-5-11-24.5T542 270t-20-40.5-11-18.5q58 11 116 48t118 112q6-2 8.5-10t2.5-18-1-17.5-2-9.5q-57-72-128-107.5T480 161Q426 79 348 34 277-7 185-7h-16q-58 6-78 46-11 22-11 46 0 19 7 37 16 44 67 61 75 17 137 17h64q25-1 52 0-3 0-10 1t-14 3-11.5 4.5-1.5 6.5q63 83 94 183 26 79 26 126 0 22-6 36-15 36-50 36-8 0-18-2-50-11-109-60-59-55-132-172T56 151q-1-2-5.5-12T39 114q-9-21-19.5-45T1 27-9 7Q-20-6-34.5 2T-64 25q-4 4-8 7-23 19-34.5 46zm307 56q4.5-2 13.5-2.5t18.5-.5 15.5 2q20 6 28.5 9.5T288 148q1 0 2 1-1-1-9-1-9 1-25 0t-34-4q-17-3-21.5-5.5t0-4.5z"/><glyph unicode="c" horiz-adv-x="715" d="M-16 307Q10 425 86.5 528.5T272 681q56 25 116 25 56 0 115-22 72-33 94-95 11-32 11-63 0-30-10-58-30-74-82-96-26-11-52-11t-52 11q-50 22-71 81 13-3 26-3 37 0 70 28 41 35 41 79v6q-7 30-44 30-8 0-18-1-54-8-121-54T180 414q-45-73-45-169v-12q7-95 59-127 40-25 92-25 14 0 30 2 113 13 187.5 67T646 278l12 12q16 16 31 34 22 24 46 47 6-1 8-10t1-21-4-22q-71-99-176-197Q482 45 383 1q-69-31-146-31-33 0-67 6Q41 3-1 96q-26 57-26 123 1 42 11 88z"/><glyph unicode="d" horiz-adv-x="862" d="M-40 151q-1 17-1 33 0 69 22 132 27 78 46 110 75 142 199 220 85 53 172 54 40 0 79-12 25-10 33-32t5.5-46-7.5-40q2 4 7.5 17.5T527 618q6 15 11 27t6 16q34 77 60 140 73 183 161 338 8 6 32 9t52 2 49.5-5.5T922 1133q-14-27-80-167T696 645 560 312q-51-137-51-190 0-6 1-11 2-9 11-12.5t20-3.5 19 1q65 16 158.5 103.5T883 371q1 0 3.5-1.5t4.5-7.5 2-17-4-29q-53-71-121-141.5T601 45q-20-13-60-27-41-14-81-19-11-1-20-1-27 0-44 10-19 14-26 37t-7 46.5 3 40.5 4 19q-20-48-79-92T164-4q-28-8-52-8-34 0-61 16-85 60-91 147zm152 118q-9-32-10-60 0-44 24-75 11-10 26-10 19 0 47 16 49 28 101 85t88 118q40 70 58 127 7 23 7 42 0 27-15 43-23 19-50 19-30 0-64-20-68-40-128-120.5T112 269z"/><glyph unicode="e" d="M-14 126q-13 45-13 95 0 61 20 128Q27 458 97 543q66 85 155 129 67 33 138 33 24 0 48-4 55-9 99.5-39.5T601 572q6-24 7-49 0-43-20-87-30-70-96-114-57-38-133-38-12 0-24 1-56 4-101 30.5T166 414q65-16 116-16 38 0 70 10 72 22 104 63 34 42 34 76 0 9-2 17-7 28-51 28-21 0-50-7-59-17-115.5-63T181 416q-6 0-10.5 1t-11.5 5l1-4 3-9 3-10q1-1 1-2t.5-1.5 0-1-.5-1.5q-1-1-1-2-28-65-32-121-1-12-1-25 0-41 15-83 20-54 80-74 30-7 62-7 46-1 98 15 86 26 137 69 109 96 174 169 20 22 35 37 7-1 8.5-16.5T739 316Q645 184 501 70q-77-60-175-88-45-13-92-13-56 0-116 18Q15 24-14 126z"/><glyph unicode="f" horiz-adv-x="401" d="M-288-425q-6 23-6 48 0 48 21 101 38 98 132 319T62 512t191.5 428 95.5 196q10 9 43 11 12 1 24 1 21 0 42-2 34-4 45-11 0-3-25-63.5T416 924t-72.5-170T287 621Q181 381 66 133q-1-2-4-7-1-3-3-6-7-14-15.5-15t-18 5.5T9 125q16-26 42.5-31t51.5 3q77 29 165.5 116T401 352q13 15 17 19 6 0 8.5-14.5T423 316q-59-81-151-170.5T67 15q36-55 36-167 0-59-10-132-16-95-93-168-65-63-147-63-14 0-28 2-97 20-113 88zm172.5 114q-2.5-33 27.5-17 16 10 27 31t21 45q12 32 20 73t13 80.5T0-33 2-6Q1-8-6-23q-14-29-39-85t-46.5-113-24-90z"/><glyph unicode="g" horiz-adv-x="853" d="M-86-306q20 87 110 150T233-44q7 3 20 8.5T278-25q8 3 14 5.5t8 3.5q-18-3-33.5-7T245-30l16 38q16 38 34 73-39-50-117-77-37-12-69-12Q73-8 43 8q-77 54-83 140v29q0 70 21 135 26 78 44 110 49 94 127 165.5T316 688q41 14 79 14 43 0 83-18 37-21 37-63 0-24-11-54 3 3 7.5 12.5T522 601q9 18 18 34.5t12 20.5q8 6 32 9t52.5 2 49.5-5.5 23-11.5q-27-54-89-196T487 140l-40-97q135 46 258 154 89 81 169 176 7-2 9-17.5t-4-37.5q-73-98-168-185-67-58-138.5-100T437-40q-15-8-29-15-8-17-15-35l-54-136q-33-84-67.5-148T193-474q-27-21-60-30t-62-9q-91 0-133 59-29 43-29 99 0 23 5 49zm137-39q8-24 29-26 24 2 47.5 42t41 87.5T191-169Q99-224 59-290q-16-31-8-55zm68 615q-12-36-12-66 0-42 23-71 12-12 29-12 19 0 45 16 49 29 100.5 86T391 341q40 69 58 123 9 29 9 50 0 20-8 34-22 28-53 28-25 0-54-16-68-38-132-120.5T119 270z"/><glyph unicode="h" horiz-adv-x="818" d="M-58.5 101.5q.5 14.5.5 25.5 12 112 88 321t167 408.5T343 1138q6 8 30.5 10.5t54.5 1 51.5-6T500 1131q-57-108-125.5-262T243 563 139.5 309 98 203q12 23 28 55 29 60 74 136.5t111 150T472 671q42 22 88 26 7 1 13 1 37 0 60-21 17-15 17-46 0-17-5-38-9-29-20-56v-1q-26-64-61-140-39-86-65-153-18-57-24.5-97.5T491 97q7-1 14-1 27 0 63 20 45 26 86.5 63t63.5 60q78 78 122 132 9-1 10-17.5t-4-36.5q-41-56-89-108-61-70-148-133T407-1h-10q-61 0-76 47-8 26-8 58-1 31 7 68 16 75 42 144t41 102q3 7 4 11 16 38 25.5 66.5T435 523q-40-14-97-94.5t-110-173T148 111q-3-6-6-11-2-5-5-9-20-44-53-79Q64-9 36-9 18-9-3-1q-47 25-55 80-1 8-.5 22.5z"/><glyph unicode="i" horiz-adv-x="434" d="M-58 58q-3 20-4 42 0 40 10 90 16 76 37 139t29 82q48 129 118 244 5 8 30 10.5t54.5 1 51-6T289 648q-13-23-50.5-103.5T161 366q-39-100-61-176-11-40-12-62 0-22 10-29 10-4 22-4 33 0 77 30 60 41 121 102t100 105q33 37 38 39 6 0 9-13.5t-4-40.5q-49-66-119-140-70-75-156-127Q102-2 5-1H1q-51 3-59 59zm221.5 660.5q-.5 1.5 2.5 7.5 2 3 4 8 9 19 19 39.5t17 32.5q2 2 3 4 3 5 5 7.5t5 3.5 10 1h2q28 3 53 3 33 0 61-5 2-1 3-1 12-2 13.5-4.5T358 804q-1-3-3-7-4-9-10.5-21.5T332 751t-9-19l-5-10q-2-5-3.5-7t-4.5-2-8 1-8 1q-38 5-80 5-18 0-36-1-4 0-7-1-7-1-7.5.5z"/><glyph unicode="j" horiz-adv-x="443" d="M-497-303q21 86 110.5 149.5T-178-42q7 3 20 8.5t26 10.5q8 3 13.5 5.5t7.5 3.5q-17-3-32.5-7t-22.5-7q53 119 102 238 85 214 191 422 10 19 14 24 8 6 31.5 9t52 2 50-5.5T298 650Q184 414 87 167q-6-12-11-25L36 45q76 30 131 59 85 50 159 123t116 122q13 15 21 24 10-4 10-21.5t-5-33.5q-75-98-135-155.5T199 55Q118 3-3-53q-7-18-15-35l-54-136q-32-84-67-148t-79-100q-27-21-60-30t-61-9q-92 0-133 59-29 43-29 101 0 23 4 48zm138-40q8-24 29-25 23 2 47 41.5t41.5 87T-219-166q-92-56-132-121-16-32-8-56zM162.5 717q-.5 1 2.5 8 2 3 4 8 9 20 19.5 41t17.5 33q1 2 3 4 3 5 5 7.5t5 3.5 10 2h2q27 3 52 3 35 0 65-6 2 0 3-1 13-2 14.5-4.5T362 805q-2-3-3-8-5-8-11-21t-13-25l-10-20q-3-6-4-10-3-5-4.5-7t-4-2.5-8.5.5q-4 1-9 1-41 6-85 6-16 0-33-1-4-1-7-1-7-1-7.5 0z"/><glyph unicode="k" horiz-adv-x="796" d="M-59.5 101.5Q-59 116-58 127q11 112 87.5 321t167 408.5T343 1138q6 8 30.5 10.5t54 1 51-6T500 1131q-57-107-122.5-253.5T253.5 590 158 355t-38-98q31 74 71 143 44 79 103.5 151.5T425 666q55 33 116 33 17 0 35-3 54-12 60-60 1-10 1-19 0-40-21-90-26-62-72-118-42-55-112-97-43-26-87-26-26 0-53 10 4-4 9-7 9-4 16-12h1v-1q2-2 3-5t2-16 1-28q1-15 2-22 3-40 14-74t34-50q18-10 41-11 17 0 37 6 46 14 90.5 41t71.5 49q56 47 106 99 58 62 95 104 1 1 1 2 8 0 10-17.5t-4-37.5q-34-45-72-88-81-97-186-167-54-34-108-53-45-16-87-16-9 0-18 1-66 8-96.5 52.5T214 149t-12 113v4q-27-58-49-118-14-38-30-75-16-42-35-60-23-23-52-23-18 0-39 9-47 25-56 80-1 8-.5 22.5zM275 390q10-1 20-1 31-1 63 9 44 12 77 52 55 72 56.5 109t-32 30-82.5-65q-6-8-28-36t-43.5-57-28.5-39z"/><glyph unicode="l" horiz-adv-x="441" d="M-54 58q-3 20-3 43 0 41 10 89 15 76 36 139t29 82q21 54 86.5 211.5t136.5 313T350 1138q6 8 30.5 10.5t54.5 1 51.5-6T508 1131q-22-33-92.5-186.5T264.5 600 134 263Q98 157 97 119q0-15 6-20 10-4 22-4 32 0 76 30 60 41 121 102t101 105q33 37 37 39 6 0 9-13.5t-4-40.5q-49-66-119-140-70-75-156-127Q105-2 9-1H5q-51 3-59 59z"/><glyph unicode="m" horiz-adv-x="1207" d="M-59 89q-1 15-1 31 0 60 21 132 27 90 56 159 48 128 118 244 6 8 30.5 10.5t54 1 51-6T292 648q-12-22-57-119.5T143 319q-3-6-10.5-24.5t-15.5-40-14-36.5l-6-15q10 18 20 37 64 124 147.5 242T472 672q42 22 88 26 7 1 13 1 37 0 60-21 17-15 17-46 0-17-5-38-31-88-75-177-51-103-87-212 13 24 29 57 40 87 110.5 196T809 648q21 14 44 26 42 22 88 26 7 1 13 1 37 0 60-21 17-15 17-46 0-17-5-38-8-29-20-56v-2q-25-61-57-135-39-91-65-160-19-57-25.5-97.5T875 97q7-1 14-1 27 0 63 21 44 27 85 64t63 60q69 70 112 119 5 6 10 11 8 0 9-17t-4-37q-47-61-101.5-120.5T1007 89Q912 14 792-1h-10q-61 0-76 47-8 26-8 58 0 30 8 68 16 76 41.5 145T787 419l5 10q10 25 17.5 47.5T819 513t-3 13q-38-14-91.5-90t-105-166T539 123q-8-14-13-23l-4-8q-16-34-41-65.5T421-7q-43 2-68.5 32.5T324 98q-1 11-1 23 0 75 29 161 33 100 53 142 1 3 2 5 18 45 18 61 0 8-5 8h-2q-38-14-90-86T227.5 255 151 117q-5-10-9-17-1-1-1-2-17-36-45-69Q71-1 34-1h-7Q-8 4-31 29t-28 60z"/><glyph unicode="n" horiz-adv-x="820" d="M-59 114q0 18 1 32 8 75 33 148.5T16 405l2 6q48 128 118 244 6 8 30.5 10.5t54 1 51-6T293 648q-12-22-57-119.5T144 319q-3-6-10.5-24.5t-15.5-40-14-36.5l-6-15q13 23 29 56 29 61 74 137.5t111 150T472 673q42 22 88 26 7 1 13 1 37 0 60-21 17-15 17-46 0-17-5-38-8-29-19-56-1-1-1-2-25-63-60-139-40-88-65-155-19-57-25.5-97.5T491 97q7-1 14-1 28 0 63 21 45 27 86 64t64 60q77 78 121 130 8 0 9.5-17.5T845 316q-39-53-86-106-73-81-162.5-141T410-1h-10q-60-1-76 47-9 27-9 60-1 31 7 68 16 76 42 145t40 101q2 5 4 9 10 25 18 47t11 36-2 13q-39-14-95-93.5t-109-172T150 114l-7-14q-2-4-5-8-20-44-53-78Q65-7 37-7 19-7-2 2q-47 26-55 81-2 13-2 31z"/><glyph unicode="o" d="M-22 117q-11 40-11 83 0 62 21 128 36 114 116 210 78 98 182 142 52 22 106 22 53 0 108-22 58-26 86.5-72.5T622 505q2-23 3-46 1-45-9-97-14-78-31-122 42 21 74 54 30 32 51 56 12 14 19 21 6-2 8-12t1-22-4-21q-11-13-20-26-11-14-21-26-1 0-1-1-3-3-5-6-39-41-74.5-61.5T545 162q-35-60-100.5-115.5T293-33q-36-10-73-10-53 0-111 20Q4 21-22 117zm155-23q36-29 82-29 9 0 19 1 58 7 106 35t66 56q-22-3-43-3-69 0-111 34-56 44-72 114-8 34-8 68t9 66q-39-42-64-108-24-64-24-127 0-68 40-107zm124 283q0-61 34-103 34-44 117-48h1q22 0 53-.5t47 2.5q-8-1-20.5 0t-21.5 5-6 13q1 2 2 5 0 1 1 1 26 60 32 128 2 28 2 52 0 35-5 62-11 56-46 77-27 16-56 16-9 1-19-1-40-6-67-36-21-24-28-50-20-61-20-123z"/><glyph unicode="p" horiz-adv-x="738" d="M-330.5-431q-11.5 27 3.5 60 24 49 73.5 162T-142 46q94 219 175 401t101 206q10 8 43 10 13 1 26 1l40-2q33-3 45-11 1-2-7.5-21T259 584q-16-32-32-66 43 78 119 138 61 46 131 46 19 0 38-3 79-19 104-114 7-27 7-59 0-80-44-189-2-5-11-24.5T551 270t-20-40.5-11-18.5q57 11 115.5 48T754 371q6-2 8-10t2-18-1-17.5-1-9.5q-57-72-128.5-107.5T489 161Q433 79 356 34 285-7 194-7h-16q-59 6-79 46-11 22-11 45 0 19 8 38 16 44 66 61 75 17 137 17h65q25-1 52 0-3 0-10 1t-14.5 3-11.5 4.5-2 6.5q63 83 95 183 26 79 26 126 0 22-5 36-15 36-51 36-9 0-19-2-50-11-109-60-82-74-168.5-226T-14.5-7-134-278q-23-53-34-79-2-3-10-23-10-21-22-48.5t-21.5-49T-233-502q-11-13-25.5-5t-29.5 23q-4 4-8 7-23 19-34.5 46zm540 565q4.5-2 13.5-2.5t18.5-.5 15.5 2q19 6 27.5 9.5T296 148q1 0 2 1-1-1-8-1-10 1-25.5 0t-33.5-4q-17-3-21.5-5.5t0-4.5z"/><glyph unicode="q" horiz-adv-x="708" d="M-40 148q-1 15-1 30 0 69 21 134 25 78 44 110 48 94 126 165.5T315 688q41 14 79 14 43 0 82-18 38-21 38-64 0-23-11-53 2 3 7 12.5t11 21.5q9 18 17.5 34.5T551 656q7 6 31 9t52.5 2 50-5.5T708 650q-27-54-89.5-196T485 140q-20-49-40-95-45-105-84-211-1-4-3-8-2-7-4-13-1-2-2-2t-3 1q-1 1-4 1-9 4-20 5.5t-18-1.5q6-2 15.5-9.5T339-207t5-10q-2-6-3-10-2-5-5-12-2-7-5-15-11-31-17.5-66.5T329-370q25-10 36 22 8 21 8 49 0 13-2 27-3 23-15.5 48T321-187l15.5-4.5L375-206l43-24q30-22 52-54 16-26 16-61 0-10-1-20-14-73-53-106.5T347-512q-24-4-45-4-20 0-37 3-95 19-112 95-7 29-7 61 0 47 16 98Q212-83 293 81 255 31 176 4 140-8 108-8 71-8 41 8q-76 54-81 140zm158 131q-13-38-13-70 0-43 24-75 11-11 27-11 18 0 44 15 49 28 101 84.5T388 340q40 69 58 122 11 34 11 56 0 14-4 23-22 35-57 35-21 0-46-12-68-33-134.5-114.5T118 279z"/><glyph unicode="r" horiz-adv-x="775" d="M-41.5 285.5Q-43 300-32 312q27 28 80.5 111.5T128 588q1 2 3 4t4 2q4 1 10 1 5 1 10 1-19 1-36 8-29 14-38.5 40.5T76 699q6 42 28 74t61 32q47-1 55-31 4-14 3-31 0-20-5-44 123 37 197 41 13 1 25 1 57 0 97-17 61-28 61-76v-12q-8-58-39-115-7-17-13-32-8-18-16-37-33-76-63.5-154T426 164q-3-17-4-29 0-30 18-38 7-1 14-1 28 0 63 21 45 27 86.5 64t63.5 60q78 79 122 130 8-2 9-18t-4-36q-50-70-119-140.5t-150.5-120T355-1h-11q-42 0-58 22-18 24-18 67 0 61 20 136 18 71 39 128.5t30 76.5q10 24 23.5 59.5T406 555q6 16 10 28l4 8q4 10 7 21t0 18.5-18 9.5h-7q-32 0-81-16-43-13-97-23-11-2-16.5-2.5T197 598q-5-1-16-2l-2-4-2-6Q130 419-17 261q-8-7-15.5 1.5t-9 23z"/><glyph unicode="s" horiz-adv-x="660" d="M-90 59q8 35 54.5 72T103 177q45 3 90 3h23l71 2q2 0 4 1 17 1 35 3h-14l-14 .5-12 1-4 2.5q68 50 72 142v9q0 87-68 145-10 8-26.5 19T232 521q-3-2-7-6t-6-7q-95-96-204-213-34-36-63-67-6-6-8.5 1.5t-2 21.5 3.5 27.5 8 20.5l14 14q57 62 105.5 116.5T179 553q-27 21-39 59-4 13-5 26 0 24 15 46 29 38 84 54 19 6 36 5 32 0 57-20 20-21 15.5-59.5T306 589q102-63 142-163 20-51 21-106 0-53-19-108 14 5 29 10 69 24 119 67t79 82q8-2 9.5-13.5t.5-24-2-16.5q-82-106-218-155l-36-12-16-6Q358 65 252 8 148-48 51-48h-3q-72 4-110 36-30 26-30 56 0 7 2 15zM48.5 83.5Q49 77 95 81q24 3 46 10-22 2-50 2-43-3-42.5-9.5z"/><glyph unicode="t" horiz-adv-x="449" d="M-48 60q-3 22-3 47 0 41 9 89 15 78 35.5 143.5T22 424q19 50 78 191t125 288q-29-1-58-3-47-2-94-3-6 0-6.5 2.5T69 904q12 10 23 20 23 22 49 40 8 5 13.5 8t11.5 3q6 1 12 1l66 4q28 2 59 3h13-3q-4 1-12.5 1.5t-16.5 1-13.5 2.5-5.5 4q1 2 2 3v2q49 104 74 141 5 8 30 10.5t54.5 1 51-6T498 1131q-12-22-66-144 73 0 146-7 9-1 11-3.5t0-6-5-6.5q-14-17-29-33-8-8-16-17l-9-9-6.5-3.5-8.5-.5h-9q-54 4-109 5-68-155-142-337-74-181-119-317-32-97-32-134 0-15 5-19 10-4 22-4 26-1 59 19 49 28 102 77 53 48 96.5 94.5T453 357q11 12 13 14 5 0 8.5-14t-3.5-41q-42-57-101-121T238 79q-52-37-108-59Q76-2 16-1h-5q-50 3-59 61z"/><glyph unicode="u" horiz-adv-x="850" d="M-48 128q10 131 55.5 263T121 635l12 20q35 18 73 19h9q32 0 55-7 26-8 26-18 0-2-2-4-2-5-5-11-30-47-69-132t-71-174q-33-88-41-146-2-12-2-22 0-30 20-30 3 0 6 1 53 21 123 118.5T393 458q75 124 124 182 14 17 22 20 14 6 39.5 8t52.5.5 45.5-5T694 653q-18-33-60.5-123.5T550 336q-36-90-54-157-8-32-9-52 0-21 10-27 12-6 27-6 48 0 123 59 74 60 133.5 123t80.5 88q5 6 6 7 6-1 8.5-15.5T872 316q-42-55-96.5-116T651 88q-54-38-114-64Q479-1 416-1h-5q-34 2-49 26.5t-18 57-1 58.5q5 108 51 210 6 11 10 20-2-3-3-6-2-3-3.5-5.5T395 353q0-1-1-1v-1q-33-63-83.5-141T218 88q-40-41-88.5-68T23-7q-43 3-59 41-13 31-13 73 0 10 1 21z"/><glyph unicode="v" horiz-adv-x="629" d="M-13 123q-4 36-4 75 0 98 25 210 35 158 66 241 4 9 28 13t54 4 52.5-3.5T232 651q-33-101-69-257-34-148-34-247v-11q0-4 1-7v-5.5l-1.5-6-4.5-8.5 4 7q5 6 10 14t9 14.5 5 7.5q10 18 24 42 44 80 110 188.5t137.5 198T556 693q27 8 52.5 6t46.5-9.5 33-14.5 11-9q-53-21-103.5-75.5T500 471q-86-124-155-237Q258 88 205 31q-19-19-49-29.5T96-5Q48 4 21 38.5T-13 123z"/><glyph unicode="w" horiz-adv-x="1006" d="M-50 123q-2 18-2 36 0 90 45 197 54 129 125 255 8 16 17 32 0 1 1 3 3 5 6 8t10 6q17 5 42.5 6.5t50.5 0 41.5-5.5 13.5-10q-13-25-30-55-53-93-105-201.5T101 194q-3-29 3.5-40.5T134 167q76 92 158 209 102 150 208 269 2 2 3 4 14 16 29.5 25t46.5 9q24 0 41.5-8.5T643 648q-5-16-11-35-25-81-53-176.5T530 260q-3-14-8.5-39.5T514 173v-23.5l-1-6.5q-2-10-15-23 20 19 27 30 2 3 4 4 8 9 21 32 12 21 26 46 44 81 104 180.5t124.5 179T927 693q27 8 52 6t45.5-9.5T1057 675t11-9q-66-23-132-105.5T833 418q-46-72-83-138-36-65-79-131-40-62-81.5-107T501-7h-3q-56 0-94 34-38 35-45 93-1 9-1 17 0 43 12 87 14 54 33 100l6 18q2 7 4 13 1 3 6.5 13.5T431 390t10 16q-1-1-5.5-7.5T426 383q-5-7-8.5-13t-4.5-7q-27-37-60-88-45-71-99-142.5T142 21Q106-4 70-4 48-4 27 5q-65 34-77 118z"/><glyph unicode="x" horiz-adv-x="639" d="M-242 69q7 14 49 62.5t97 110T6 354q-34 137-54 245-1 3-2 9-3 12-5 25t0 18q5 7 24.5 12t43.5 6 44-3q5 0 8-1 9-2 13-3t5.5-4.5T85 648q1-2 1-5 2-16 7-41 9-48 23-116l1-1v-4q1-1 2-6.5t2-13.5q2-8 3-14.5t1-7.5v3q0 6-.5 15t-.5 16.5 3 10.5v2h1q0 1 1 1 30 33 57 64 107 125 148 146 27 8 52 5t45-11 31.5-15.5T473 666q-21 2-33.5-4T417 647l-10-8q-30-22-101.5-98.5T146 364q31-124 73-212 26-55 51-64 7-3 17-3 24 0 61 16 66 28 142.5 102T616 332q33 37 38 39 5 0 8.5-13.5T659 317q-49-66-119-140-70-75-156-127Q299-2 203-1h-4q-54 5-93 85-38 70-67 160-12-13-23-26-83-95-140.5-158.5T-189-7q-35 2-50 29-12 24-3 47z"/><glyph unicode="y" horiz-adv-x="835" d="M-100-303q20 86 110 149.5T219-41q7 3 20.5 8T266-22q6 3 12 5-12-2-25.5-5.5T230-29q72 170 143 340-34-60-76.5-123.5T219 88q-40-41-88.5-68T24-7q-42 3-58 41-14 31-14 73 0 10 1 21 10 131 55.5 263T122 635q4 6 7 11t6 9q43 20 86 20 8 0 15-1 50-4 62-24l-2-4-6-12q-30-47-69-132t-71-173.5T110 182q-2-12-2-21 0-31 19-31 3 0 6 1 55 22 123.5 119T392 457q47 78 86 135t62 69q12 5 34.5 6t47.5 0q29-1 50-5.5t24-11.5Q588 426 494 192q-14-36-29-71l-32-76q109 40 184 92 131 101 244 236 9-4 10-20t-5-35q-37-48-88-105.5T659 101q-68-52-134.5-88T413-43q-11-5-19-9-8-18-15-36l-54-136q-32-84-67-147.5T179-472q-27-21-60-30t-61-9q-92 0-134 59-29 43-29 100 0 23 5 49zm137-40q8-24 30-25 23 2 46.5 41.5t41.5 87 23 73.5Q85-222 46-287q-17-32-9-56z"/><glyph unicode="z" horiz-adv-x="567" d="M-212 158q51 100 120 151.5T59 401q53 26 109.5 60T285 545q20 17 24 29t-17 15q-45 8-111 8-31 1-65-1-110-6-180-49 54 87 114 105 48 15 124 15 21 0 44-1h55q79 0 125-8.5t64-45.5q6-16 6-32 0-22-12-44-21-38-58-70t-69-53q-7-5-40-22-65-33-166.5-91T-44 184q-39-37-39-59 1-23 31-34 28-10 66-12 49-5 93-5 154 0 229 59 63 44 129.5 110T585 371q1 1 3.5-1t4.5-8 1.5-17.5T590 316q-50-70-118-137.5T316 54Q252 14 183 3.5T43-7Q12-7-40.5-2T-142 15.5-210 51q-16 21-16 49 0 26 14 58z"/><glyph unicode="{" horiz-adv-x="679" d="M16.5 157Q33 268 60 371q33 124 28 175-8 30-22 48-9 13-13.5 24.5T53 643q13 24 57 56 28 22 57 49t51 61q8 14 19 33 47 82 126.5 204t173 218T718 1364q48-2 69.5-27.5T818 1271q-25 19-82 14.5t-96-32.5q-67-56-134.5-156.5T381 899q-58-99-93-143-36-41-77-73-35-28-43-41-2-5 2-11t11-13q13-13 24-33.5t6-51.5q-11-46-32-117-26-81-47.5-171T113 81t50-108q19-10 55.5-15t61.5-3q-44-76-118-73-106 6-134 85T16.5 157z"/><glyph unicode="|" horiz-adv-x="778" d="M10 33q48 122 165.5 362.5t237 474.5T588 1206q15 27 45 43.5t85 34.5q51 17 55.5-2t-13.5-56q-90-203-254.5-537.5T230 130q-6-12-11-23-14-25-51-50.5t-77.5-42T25 .5 10 33z"/><glyph unicode="}" horiz-adv-x="679" d="M10-25q25-20 82-15t96 33q67 56 134.5 156T447 346q58 99 93 144 36 41 77 73 35 28 43 41 2 5-2 11t-11 13q-13 13-24 33t-6 51q11 47 32 117 26 82 47.5 172t18.5 164-50 107q-19 11-55.5 16t-61.5 3q44 76 118 73 106-7 134-85.5t11.5-189.5T768 875q-33-125-28-175 8-30 22-49 9-12 13.5-23.5T775 603q-13-24-57-57-28-21-57-48t-51-61q-8-14-19-33-47-82-126.5-204.5T291.5-19 110-118q-48 2-69.5 27.5T10-25z"/><glyph unicode="~" horiz-adv-x="692" d="M1 282q-1 73 34.5 116t87.5 62 100 22q51 3 87-16t67-46q29-24 61-42t76-19q37 1 69 20t69 50q19 15 40 31 0-102-58-150.5T505 254q-61-7-101 12t-73 46q-46 41-113 60-57 9-110.5-19T1 282z"/><glyph unicode="¡" horiz-adv-x="533" d="M3 24q40 95 97 247 53 141 110.5 286T320 809q26 50 50 74.5t51 42.5q9 6 18 13-16-104-86-312T213.5 234.5 129 18Q117-3 82.5-11.5t-61.5-1T3 24zm383 1065q7 26 10 37 2 8 4 15t5.5 18 9.5 31q5 13 23 16t39-.5 35.5-11.5 12.5-18q-3-13-5-20.5t-3-12-2-8.5q-1-6-4-17t-9-37q-5-13-23.5-16.5t-40.5-1-37.5 9.5-14.5 16z"/><glyph unicode="¢" horiz-adv-x="1047" d="M9.5-172Q0-144 24-110q8 10 17 22Q95-16 168 79q-78 57-91.5 153T101 435t114 194 176.5 124 210.5-5q32-14 53-34 140 180 233 294 62 73 100 85t48.5-10-9.5-51q-43-58-133-180-83-112-187-252 2-35-10-68-20-51-52-77t-68-29Q468 280 365 146q24-2 50 1 113 13 187.5 67T745 342l12 12q16 16 31 34 22 24 46 47 6-1 8.5-10t1-21.5T839 382q-71-99-176-197-79-74-175-117.5T282 38Q180-93 117-165q-38-40-68-37.5T9.5-172zM234 297q4-61 28-95 99 130 205 268-18 19-27 47 34-10 67 6 36 46 71 91 0 6-1 13-8 37-61.5 29t-121-54.5-115.5-124T234 297z"/><glyph unicode="£" horiz-adv-x="1128" d="M5-26Q0 68 66.5 114.5T229 171q68 43 130.5 90.5t95 91T464 429q-93-2-168.5-.5T185 438t-6 24q44 19 190 28-96 73-98.5 191.5T379 955q100 128 242.5 171.5t270 16.5 182-110.5T1053 824q-6 71-65 125.5T842 1025t-178.5-8.5T500 888q-74-111-73.5-177.5T471 605t99-66q37-20 65-40 86 0 144.5-1.5T847 493q78-40-30-51-28-1-73-3-32-2-68-3 1-15-6-33-19-44-97.5-117T415 156q67-25 125-60 40-24 82.5-43.5T713 26q50-7 113 3.5T968 75Q949-42 851.5-88T632-122q-55 6-103.5 27.5T435-47q-41 24-84 44t-91 26q-49 8-112-2.5T5-26z"/><glyph unicode="¤" horiz-adv-x="785" d="M7 125q-7 29 24.5 67.5T115 253q-20 73 28 182.5T276 626q-33 32-50.5 74.5T224 763q27 23 65.5-4t67.5-62q70 39 154.5 41T628 688q46 29 90 36.5t57-10.5q10-28-27.5-62T666 596q4-63-32.5-148t-88-158.5T451 188q23-29 28-69t-27-65q-18-10-39 2.5T375 91t-24 38q-127-52-203 21-45-24-88-34.5T7 125zm209.5 199Q207 250 262 221q58-21 120.5 30t109 134T548 542.5 509 642q-55 20-119.5-30t-114-132-59-156z"/><glyph unicode="¥" horiz-adv-x="928" d="M23-162.5Q34-152 55-143l4 2q7 3 16 6 26 8 66.5 32.5T226-18q23 33 53 85-86-1-153 1T29.5 78 28 101q26 13 106 21t182 12q14 26 29 55-88-2-157.5 0T87 199t-3 24q26 13 108.5 21T380 256q38 74 78 156-75-84-135.5-98T201 332q-67 34-75 111t23 176.5T231 820t103 183q37 56 77.5 59.5t65.5-23 16-61.5q-15-42-65-135-42-78-83-164t-57.5-153 15.5-88q36-21 93 9t118 90q4 6 33.5 65.5t68 140 71.5 149 44 91.5q21 39 31 52 29 31 89 26 50-2 63.5-26.5T918 979q-11-31-54-116T762 667q-94-194-219-407 62-1 102-2.5t47-4.5q78-40-30-51-29-1-73-3-39-1-85-3-19-30-38-58 70 0 116-1.5t54-4.5q79-40-29-51-29-1-74-3-49-2-111-5-18-24-34-48-83-122-152.5-192.5T82-227q-14 2-31 11t-27 23q-12 20-1 30.5z"/><glyph unicode="¦" horiz-adv-x="779" d="M15-40q5 9 10 19 98 197 251 497l166-9Q265 115 160-65q-29-43-69-47.5T25.5-96 15-40zm359 707q139 272 231 439 20 39 44 62t61 19q40-5 54.5-15.5t2.5-38.5q-64-140-229-474z"/><glyph unicode="§" horiz-adv-x="985" d="M2 176q-2 24 13 35.5t35 5T83 179q29-71 90-109t125-45.5 102 13 20 66.5q-16 32-71 96-63 74-125.5 168t-72 185.5T239 712q4 3 9 5 43 26 111 45 76 20 156 14-69 85-113 180.5T390.5 1134 584 1264q122 30 240-.5T976 1159q9-26 6-45t-13-23-23 13q-46 59-127 79.5t-136 8.5q-158-39-160-109 2-37 32.5-81t73.5-94q69-76 120.5-163.5T783 561q-17-67-78-118.5T556 392q-65 4-121 37.5T327 507q31-47 78-101 68-75 120-163t33-184Q540-6 471-53T313-99q-115 5-202.5 74T2 176zm328 461q54-73 136.5-98.5T607 531t38 75q-13 26-56 78-78 18-130 7-88-20-129-54z"/><glyph unicode="¨" horiz-adv-x="471" d="M36.5 1225.5q-.5 1.5 2.5 7.5 2 3 4 8 9 19 19 39.5t17 32.5q2 2 3 4 3 5 5 7.5t5 3.5 10 1h2q64 7 114-2 2-1 3-1 12-2 13.5-4.5T231 1311q-1-3-3-7-4-9-10.5-21.5T205 1258t-9-19l-5-10q-2-5-3.5-7t-4.5-2-8 1-8 1q-55 7-116 4-4 0-7-1-7-1-7.5.5zm218-2q-.5 1.5 2.5 7.5 2 3 4 8 9 19 19 39.5t17 32.5q2 2 3 4 3 5 5 7.5t5 3.5 10 1h2q64 7 114-2 2-1 3-1 12-2 13.5-4.5T449 1309q-1-3-3-7-4-9-10.5-21.5T423 1256t-9-19l-5-10q-2-5-3.5-7t-4.5-2-8 1-8 1q-55 7-116 4-4 0-7-1-7-1-7.5.5z"/><glyph unicode="©" horiz-adv-x="1210" d="M14 360q14 169 112 369 126 269 297 409.5T867 1279q150-3 226.5-67.5t96.5-166 .5-215.5-60.5-216q-36-95-107.5-208.5t-174-217T616 21.5 332-36Q155-23 77.5 84T14 360zm198.5-107.5Q238 139 346 109q148-29 286.5 61.5t243 246 150.5 321 9.5 285.5T856 1163q-147-2-274.5-99.5T362 819 228.5 519t-16-266.5zm113 344Q347 693 410 778t152 125 190 2q59-26 76.5-77t.5-99q-24-61-67.5-79t-84.5 0-58 66q42-11 78.5 20t33.5 70q-11 40-81 16t-135.5-99T450 536q6-77 48-103.5T598 413q93 11 154 55t117 105q5 4 10 9 13 14 25 28 18 20 37 39 5-1 7-8.5t1-17.5-4-18q-58-80-143-161-68-62-149-98t-174-21q-106 23-140.5 99t-13 172.5z"/><glyph unicode="ª" horiz-adv-x="597" d="M-51 944.5q-5 74.5 17 142.5t37 97q41 81 105 143t136 87.5 136 .5q32-16 34-46.5t-10-59.5q-8-18-13-29.5t-4-8.5q8 14 17 38 11 21 20 40t10 23l2 2q2 4 3.5 7.5t3.5 5.5q7 6 26.5 8.5t43.5 1.5 41.5-5 19.5-10q-12-24-47.5-105T456 1103t-47-153q0-3-1-5-5-25-7.5-57t7.5-45 44 18q25 24 44.5 65t19.5 89.5-33 94.5q84-26 96-101t-34-147.5T408 772q-55-8-90 21.5T280 891q0 24 2 39.5t3 17.5q-17-42-66.5-79t-106-53-94.5 7q-64 47-69 121.5zm130.5 113Q55 980 91 932q20-21 60 4t83 74.5 72 102.5q33 60 48 106t5 67q-29 50-86 20.5T160 1206t-80.5-148.5z"/><glyph unicode="«" horiz-adv-x="1035" d="M10 338q12 32 93.5 90t186 120.5T476 655t95 48q19 2 29.5-7t16.5-24q10-27-9-44t-48-30q-15-7-29-16-42-25-103-60-133-73-272-167 76-45 157-114.5T443 125q17-16 26-24 17-18 6-39.5t-35.5-30T389 43q-60 77-140 132.5T103 268q-43 24-68.5 41.5T10 338zm317 0q12 32 93.5 90t186 120.5T793 655t95 48q19 2 29.5-7t16.5-24q10-27-9-44t-48-30q-15-7-29-16-42-25-103-60-133-73-272-167 76-45 157-114.5T760 125q17-16 26-24 17-18 6-39.5t-35.5-30T706 43q-60 77-140 132.5T420 268q-43 24-68.5 41.5T327 338z"/><glyph unicode="¬" horiz-adv-x="663" d="M0 586.5Q0 599 10 616t23 30 21 15q62 11 184.5 16.5T478 683t162-5q23-3 21-18.5T647 623q-3-7-6-13-119-253-169-420-8-15-20.5-15t-25.5 8-22 17.5-8 14.5q13 59 60 175t90 204q-315 3-527-21-19 1-19 13.5z"/><glyph unicode="­" horiz-adv-x="578" d="M0 321.5q0 12.5 8 29T25.5 380 40 395q47 11 139 16.5t180 5.5 122-4q20-4 19-16t-15.5-29-33.5-36l-4-4q-261 5-432-20-15 1-15 13.5z"/><glyph unicode="®" horiz-adv-x="1211" d="M14 350q14 169 112 369 127 269 297.5 409.5T867 1269q151-3 227.5-67.5t96.5-166 .5-215.5-60.5-216q-37-95-108-208.5t-173.5-217T617 11.5 332-46Q156-33 78 74T14 350zm199.5-107.5Q239 129 346 99q149-29 287.5 61.5t242.5 246 150.5 321 10 285.5T857 1153q-147-2-274.5-99.5T362.5 809 229 509t-15.5-266.5zM359 392q49 94 98 187 52 100 103 200 5 9 8 14 3 6 6.5 12t8.5 18q4 6 20.5 9.5T639 835t32-7 10-19q-25-50-53-103-11-21-21-40 7 2 17 4 30 7 75.5 23.5T789 743q75 57 75.5 84.5t-47.5 35-121 4.5q-67 0-155.5-25T370 750q15 45 41 81t73 55q135 47 229 43.5T859 907q43-15 56-45.5t1-68.5q-33-92-122-136.5T612 587q-3 0-5-1 9-185 74-206t179 109q2 1 3.5-5t-1.5-18q-8-12-18-23-22-29-69-71.5T677 311t-87 25q-17 23-26 47.5T551 423q-2 7-4 11-10 27-17 78 0 4-1 10 0 4-.5 8t-.5 5q-1-4-1-8 0-13-5-24-48-93-87-180-17 0-34.5 13.5T371 367t-12 25z"/><glyph unicode="¯" horiz-adv-x="709" d="M30 1253q-1 10 9.5 23t24 22.5T85 1309q64 3 179 3.5t224 0 158-1.5q8-3 3.5-16.5T631 1266t-33-21q-273 1-444-2-51 0-103-1-20 1-21 11z"/><glyph unicode="°" horiz-adv-x="338" d="M11 1078.5Q0 1140 40 1223q35 73 81.5 111t120.5 38q79-5 87.5-63.5T313 1191q-13-35-43.5-78t-75.5-73.5T93 1010q-71 7-82 68.5zm74 95Q69 1118 98 1088q29-22 64 3t61 71 29 88.5-33 55.5q-40 8-79-34.5t-55-98z"/><glyph unicode="±" horiz-adv-x="746" d="M-26 97q-1 10 10 23t24.5 22.5T31 153q67 3 186 3.5t232.5 0T614 155q8-3 3-16.5T598 110t-34-21q-284 1-461-2-53 0-107-1-21 1-22 11zM5.5 503.5Q10 516 19 526.5T34 539q33 11 101 16.5t151 7.5q39 92 70 158t39 76q31 28 68 21 37-4 37-25.5T487 742l-6-14-2-6q-22-59-62-157 83 0 148-1.5t92-3.5q29-3 32.5-22T673 501.5 612 485h-4q-119 1-225 1-50-118-102-205.5T192 201q-23 12-1.5 94T255 484q-123-2-222-9-22-2-27 7t-.5 21.5z"/><glyph unicode="²" horiz-adv-x="685" d="M18 752q36 56 97.5 109T249 962t140 90q67 41 116 74.5t66 58-12 38.5q-32 12-94 9.5T348 1213q-39-15-49.5-42t-3.5-41q-48 7-55.5 32.5t12.5 53 56 41.5q52 18 117 25.5t126 2.5 99.5-22.5T688 1214q-4-36-49.5-79T525 1045t-140-92q-64-41-117.5-77.5T185 811q-16-18 12-26t81.5-9.5 113 .5 107.5 5q33 2 52 2 12-12-1.5-29.5t-35-31T480 709q-29 1-100-1-57-2-124-2.5t-125.5 3-91 13.5T18 752z"/><glyph unicode="³" horiz-adv-x="520" d="M1.5 793Q2 827 16 856.5T48 897q-14-56 6.5-90.5t66.5-43T230 775q61 22 105 63.5t50.5 80.5-43 54.5T166 960q-14-1-18.5 13.5t2 33.5 23.5 33q6 5 24.5 12t36.5 14q17 6 26 9 32 14 71 32.5t70.5 40T443 1190q8 24-24.5 33.5t-89 5.5-120.5-22q-25-8-64.5-24T86 1157q3 9 5 16 11 34 27 53t64 35q59 21 122 26t115.5-4.5 79-34.5 13.5-66q-26-57-86-96t-119-49q32 5 68-8 66-28 74.5-83.5t-32-114.5-121-97.5T102 701q-56 5-78.5 31.5T1.5 793z"/><glyph unicode="´" horiz-adv-x="165" d="M0 1059q17 28 29 81.5T51 1252q10 60 21 103 9 19 31.5 25t42-.5T165 1354q-3-40-33.5-103t-68-118T0 1059z"/><glyph unicode="µ" horiz-adv-x="1088" d="M3.5-81.5q3.5 98.5 67 258T225 510t176.5 316T534 1032q22 31 57.5 57t87.5 29q31 2 48-4.5t14-21.5q-4-13-24-53-24-41-58-99-90-154-207-358v-1q-2-61 28-92t90-10q55 24 106.5 91T773 722.5 855 887q48 103 78 148 27 33 67.5 40t64-15.5-1.5-78.5q-11-24-23-47-88-183-172.5-346T670 244q-28-33-72-43t-68.5 6.5T535 270q8 12 22.5 34.5T589 354q19 29 35 55t25 39q-34-29-90-55t-106-15.5-65 90.5q-79-140-139-255T167 39q-13-41-9.5-64.5t15-35.5T195-78q6-4 9-7 1-1 2-1 8-7 11-13.5t-3.5-15T185-136q-25-14-51.5-23T90-171Q0-180 3.5-81.5z"/><glyph unicode="¶" horiz-adv-x="1528" d="M4-80q7 30 47 122.5T147 258q77 170 145 328-98-7-169.5 44.5T30.5 773 66 978q64 133 152.5 196t202.5 79 256 11q124-2 274 2 252 8 553-6 21-8 22.5-21t-7.5-27-20.5-23.5-16.5-9.5q-150 11-299 4-46-2-94-3-15-37-36.5-87t-40.5-92q-40-89-86-192-155-341-274-627-47-115-91-230-16-51-81-68-50-10-81 18.5T382-10q14 53 85 225t160.5 381.5T787 970q40 93 64 148.5t24 56.5q-21 5-67 5t-78-6q-53-133-128-294-32-67-57-123-85-193-186-427-94-220-179-412-19-36-63.5-48.5T36-131 4-80z"/><glyph unicode="·" horiz-adv-x="167" d="M10 394q4 17 7.5 27.5T29 453q2 7 6 17 12 5 36 6t46-1 29-7q-8-22-14-38-7-17-14-39-11 2-32 3.5T43.5 396 10 394z"/><glyph unicode="¸" horiz-adv-x="268" d="M0-57q3 25 17.5 46T66 13q18 1 32 2 48 1 65 5t19 19q4 18-19.5 22.5T99 66q-22 0-46 2-11 3-4.5 32.5t36 63.5 86.5 53q2 1 6-.5t7-3.5 2.5-4.5-7.5-4.5q-16-5-29.5-20.5T127 151t-12-26q-4-8 7-7 72 8 109-15t24-86q-12-50-48.5-61T100-54Q57-54 0-57z"/><glyph unicode="¹" horiz-adv-x="344" d="M5 750q9 34 61 136t104.5 201 65.5 122l2 3q1 8-10.5 8.5t-30-3.5-36-10-27.5-11q10 43 44 63t73.5 25 63.5 1q28-4 27-25.5t-22-58.5q-41-78-113-227-67-136-130-259-9-15-27-12t-33 17-12 30z"/><glyph unicode="º" horiz-adv-x="514" d="M23 873.5q13 70.5 55 146T182.5 1159t138.5 98q71 30 117 12t66.5-66 16.5-109.5T490 975q-43-87-101-152t-126-98.5T121 698q-66 9-88.5 57T23 873.5zM91.5 847Q87 795 125 774q43-18 98 13t107 90.5 86.5 126.5 35.5 120.5-46 72.5q-40 12-91-20.5T214 1086t-84-122.5T91.5 847z"/><glyph unicode="»" horiz-adv-x="1035" d="M14 60q-10 27 9 44t48 30q15 7 29 16 42 25 103 60 132 73 272 167-76 45-157 114.5T188 607q-17 16-26 24-17 18-6.5 39.5T191 701t51-12q60-77 139.5-132.5T528 464q43-24 68.5-41.5T620 394q-12-32-93-90T341.5 183.5 155 77 59 29q-18-2-28.5 7T14 60zm317 0q-10 27 9 44t48 30q15 7 29 16 42 25 103 60 132 73 272 167-76 45-157 114.5T505 607q-17 16-26 24-17 18-6.5 39.5T508 701t51-12q60-77 139.5-132.5T845 464q43-24 68.5-41.5T937 394q-12-32-93-90T658.5 183.5 472 77t-96-48q-18-2-28.5 7T331 60z"/><glyph unicode="¿" horiz-adv-x="889" d="M28.5 200Q28 310 140 419q63 57 142 105.5T439 616q136 72 209 135 26 26 42.5 58t28.5 63q17 52 42 73 37 3 68 2 13-1 29-1 6-8-6-48t-39-94-65-104q-43-53-111.5-96.5T489 520q-115-57-210-127.5T159 214q-14-44 26.5-86T310 74t200 34q93 40 158.5 88t80.5 70q-17-117-82-184.5T517.5-15 359-48q-152-5-241 66.5T28.5 200zM748 1052q8 26 11 37 2 8 4 15t5 18 10 32q5 12 23 15.5t39-.5 35.5-12 12.5-18q-4-13-6-20.5t-3-12-1-8.5q-2-5-4.5-16.5T864 1044q-4-13-22.5-16.5t-41-1-38 9.5-14.5 16z"/><glyph unicode="À" horiz-adv-x="1338" d="M1 178.5Q0 291 68.5 400T245 565q101 48 185 51t147-7q28-3 52-5 153 245 325 450 34 40 111 107t170.5 126 177 74.5T1543 1314q27-31-20-126-165-321-287-604.5T1006-63q-6-14-34.5-6.5t-63.5 30-60 52T823 72q24 91 64 194t75.5 180.5T1007 540l-2-4q-7-17-35.5-44.5T874 447t-189-3q-35-52-76-120-61-106-135.5-205.5T307-24 103-2Q2 66 1 178.5zM162 307q-9-65 26-106.5t99-23.5 141 131q19 29 59 85 26 36 47 67 14 15 42.5 13t47.5-8q-24 7-44 14-48 19-109 19-63-4-127.5-24.5T239 425q-68-53-77-118zm600 264q86-22 148-2.5t99.5 53T1060 672q2 3 4 5 43 93 101 203 76 145 127 261 33 70-65 4-50-37-139.5-139T907 783.5 762 571zm486 1133q0 19 19.5 25.5t42 .5 31.5-25q11-43 21-103 10-58 22-111.5t29-81.5q-26 19-63.5 74t-68 118-33.5 103z"/><glyph unicode="Á" horiz-adv-x="1338" d="M1 178.5Q0 291 68.5 400T245 565q101 48 185 51t147-7q28-3 52-5 153 245 325 450 34 40 111 107t170.5 126 177 74.5T1543 1314q27-31-20-126-165-321-287-604.5T1006-63q-6-14-34.5-6.5t-63.5 30-60 52T823 72q24 91 64 194t75.5 180.5T1007 540l-2-4q-7-17-35.5-44.5T874 447t-189-3q-35-52-76-120-61-106-135.5-205.5T307-24 103-2Q2 66 1 178.5zM162 307q-9-65 26-106.5t99-23.5 141 131q19 29 59 85 26 36 47 67 14 15 42.5 13t47.5-8q-24 7-44 14-48 19-109 19-63-4-127.5-24.5T239 425q-68-53-77-118zm600 264q86-22 148-2.5t99.5 53T1060 672q2 3 4 5 43 93 101 203 76 145 127 261 33 70-65 4-50-37-139.5-139T907 783.5 762 571zm650 823q17 28 29 81.5t22 111.5q10 60 21 103 9 19 31.5 25t42-.5 19.5-25.5q-3-40-33.5-103t-68-118-63.5-74z"/><glyph unicode="Â" horiz-adv-x="1338" d="M1 178.5Q0 291 68.5 400T245 565q101 48 185 51t147-7q28-3 52-5 153 245 325 450 34 40 111 107t170.5 126 177 74.5T1543 1314q27-31-20-126-165-321-287-604.5T1006-63q-6-14-34.5-6.5t-63.5 30-60 52T823 72q24 91 64 194t75.5 180.5T1007 540l-2-4q-7-17-35.5-44.5T874 447t-189-3q-35-52-76-120-61-106-135.5-205.5T307-24 103-2Q2 66 1 178.5zM162 307q-9-65 26-106.5t99-23.5 141 131q19 29 59 85 26 36 47 67 14 15 42.5 13t47.5-8q-24 7-44 14-48 19-109 19-63-4-127.5-24.5T239 425q-68-53-77-118zm600 264q86-22 148-2.5t99.5 53T1060 672q2 3 4 5 43 93 101 203 76 145 127 261 33 70-65 4-50-37-139.5-139T907 783.5 762 571zm433 843q13 15 32 39 42 52 99 118t108 114q48 40 52-13 8-95 19-180 8-72 10-100-13 2-31.5 13.5t-33 25-15.5 21.5q-1 22-2.5 50.5t-3.5 78.5q-23-19-68-68.5t-82-95.5q-20-1-32-2-10-1-22-1h-30z"/><glyph unicode="Ã" horiz-adv-x="1338" d="M1 178.5Q0 291 68.5 400T245 565q101 48 185 51t147-7q28-3 52-5 153 245 325 450 34 40 111 107t170.5 126 177 74.5T1543 1314q27-31-20-126-165-321-287-604.5T1006-63q-6-14-34.5-6.5t-63.5 30-60 52T823 72q24 91 64 194t75.5 180.5T1007 540l-2-4q-7-17-35.5-44.5T874 447t-189-3q-35-52-76-120-61-106-135.5-205.5T307-24 103-2Q2 66 1 178.5zM162 307q-9-65 26-106.5t99-23.5 141 131q19 29 59 85 26 36 47 67 14 15 42.5 13t47.5-8q-24 7-44 14-48 19-109 19-63-4-127.5-24.5T239 425q-68-53-77-118zm600 264q86-22 148-2.5t99.5 53T1060 672q2 3 4 5 43 93 101 203 76 145 127 261 33 70-65 4-50-37-139.5-139T907 783.5 762 571zm159 850q-1 65 31 103t78 55.5 88 19.5q46 2 78-15t60-40q26-21 54.5-37.5t67.5-16.5q33 0 61.5 17t62.5 45q16 13 35 28-1-92-52.5-135t-114.5-50q-54-6-89.5 11t-65.5 42q-41 36-100 53-51 8-99-17t-95-63z"/><glyph unicode="Ä" horiz-adv-x="1338" d="M1 178.5Q0 291 68.5 400T245 565q101 48 185 51t147-7q28-3 52-5 153 245 325 450 34 40 111 107t170.5 126 177 74.5T1543 1314q27-31-20-126-165-321-287-604.5T1006-63q-6-14-34.5-6.5t-63.5 30-60 52T823 72q24 91 64 194t75.5 180.5T1007 540l-2-4q-7-17-35.5-44.5T874 447t-189-3q-35-52-76-120-61-106-135.5-205.5T307-24 103-2Q2 66 1 178.5zM162 307q-9-65 26-106.5t99-23.5 141 131q19 29 59 85 26 36 47 67 14 15 42.5 13t47.5-8q-24 7-44 14-48 19-109 19-63-4-127.5-24.5T239 425q-68-53-77-118zm600 264q86-22 148-2.5t99.5 53T1060 672q2 3 4 5 43 93 101 203 76 145 127 261 33 70-65 4-50-37-139.5-139T907 783.5 762 571zm345.5 849.5q-.5 1.5 2.5 7.5 2 3 4 8 9 19 19 39.5t17 32.5q2 2 3 4 3 5 5 7.5t5 3.5 10 1h2q64 7 114-2 2-1 3-1 12-2 13.5-4.5t-3.5-10.5q-1-3-3-7-4-9-10.5-21.5T1276 1453t-9-19l-5-10q-2-5-3.5-7t-4.5-2-8 1-8 1q-55 7-116 4-4 0-7-1-7-1-7.5.5zm218-2q-.5 1.5 2.5 7.5 2 3 4 8 9 19 19 39.5t17 32.5q2 2 3 4 3 5 5 7.5t5 3.5 10 1h2q64 7 114-2 2-1 3-1 12-2 13.5-4.5t-3.5-10.5q-1-3-3-7-4-9-10.5-21.5T1494 1451t-9-19l-5-10q-2-5-3.5-7t-4.5-2-8 1-8 1q-55 7-116 4-4 0-7-1-7-1-7.5.5z"/><glyph unicode="Å" horiz-adv-x="1338" d="M1 178.5Q0 291 68.5 400T245 565q101 48 185 51t147-7q28-3 52-5 153 245 325 450 34 40 111 107t170.5 126 177 74.5T1543 1314q27-31-20-126-165-321-287-604.5T1006-63q-6-14-34.5-6.5t-63.5 30-60 52T823 72q24 91 64 194t75.5 180.5T1007 540l-2-4q-7-17-35.5-44.5T874 447t-189-3q-35-52-76-120-61-106-135.5-205.5T307-24 103-2Q2 66 1 178.5zM162 307q-9-65 26-106.5t99-23.5 141 131q19 29 59 85 26 36 47 67 14 15 42.5 13t47.5-8q-24 7-44 14-48 19-109 19-63-4-127.5-24.5T239 425q-68-53-77-118zm600 264q86-22 148-2.5t99.5 53T1060 672q2 3 4 5 43 93 101 203 76 145 127 261 33 70-65 4-50-37-139.5-139T907 783.5 762 571zm514.5 879q-8.5 47 22.5 112 27 56 63 85.5t93 29.5q61-4 68-49t-13-91q-10-27-33.5-60t-58-57-78.5-23q-55 6-63.5 53zm57 73.5q-12.5-42.5 9.5-65.5 23-17 50 2t47.5 55 22.5 68.5-26 42.5q-31 6-61-27t-42.5-75.5z"/><glyph unicode="Æ" horiz-adv-x="2140" d="M1 178.5Q0 291 68.5 400T245 565q101 48 185 51t147-7q28-3 52-5 153 245 325 450 34 40 111 107t170.5 126 177 74.5T1543 1314q27-31-20-126-131-255-235-486 36 18 74 33 118 46 234 36-104 79-116.5 188.5T1532 1168q78 112 179.5 160t207.5 47q154-2 228-73t48-197q-28-104-108.5-153T1925 919.5 1816 1030q41-13 102 5t108 61 45 104q-7 39-75.5 46.5T1844 1226t-133-95q-64-94-51-159t78.5-111 159.5-86q62-29 61.5-67.5t-40-63.5-94.5-14q-169 37-320.5-17T1262 456t-79-212q26-133 138.5-179T1576 37t255 76q192 103 345 257 3 0 5.5-4.5t2-16-6.5-30.5q-3-3-16-17-30-33-102-100.5T1878 61q-121-79-260-125.5T1339-95q-160 24-250 108-25 23-45 49-19-61-38-125-6-14-34.5-6.5t-63.5 30-60 52T823 72q24 91 64 194t76 181q26 56 37 80-9-15-30-35-29-28-96-45t-189-3q-35-52-76-120-61-106-135.5-205.5T307-24 103-2Q2 66 1 178.5zM162 307q-9-65 26-106.5t99-23.5 141 131q19 29 59 85 26 36 47 67 14 15 42.5 13t47.5-8q-24 7-44 14-48 19-109 19-63-4-127.5-24.5T239 425q-68-53-77-118zm600 264q86-22 148-2.5t99.5 53T1060 672q2 3 4 5 43 93 101 203 76 145 127 261 33 70-65 4-50-37-139.5-139T907 783.5 762 571z"/><glyph unicode="Ç" horiz-adv-x="1205" d="M31 503q31 181 131 357t245.5 306.5T722 1342t338-35q101-51 136.5-145t-7.5-221q-46-121-143.5-186T851 713.5 711 885q58-20 148-4t158 65q64 52 72.5 113t-36 103.5T915 1201t-235-81q-115-66-217.5-183.5T297 660t-62-347q5-119 73.5-191.5T469 34q259-42 454 76 167 105 301 260 4 1 6-10.5t-5-39.5q-3-3-15-17-26-35-91-105T957.5 55 741-63q-163-62-381-27-9 2-18 5l-2-4q-9-17-12-26-4-8 7-7 72 8 109-15t24-86q-12-50-48.5-61T313-294q-43 0-100-3 3 25 17.5 46t48.5 24q18 1 32 2 48 1 65 5t19 19q4 18-19.5 22.5T312-174q-22 0-46 2-11 3-4.5 32.5T298-76q1 2 3 4-79 30-132 86Q97 89 61 176 0 322 31 503z"/><glyph unicode="È" horiz-adv-x="1191" d="M18.5 210Q0 324 52 440q43 90 136.5 169.5T400 735t234 36q-104 79-116.5 188.5T570 1168q78 112 179.5 160t207.5 47q154-2 228-73t48-197q-28-104-108.5-153T963 919.5 854 1030q41-13 102 5t108 61 45 104q-7 39-75.5 46.5T882 1226t-133-95q-64-94-51-159t78.5-111T936 775q62-29 61.5-67.5t-40-63.5-94.5-14q-169 37-320.5-17T300 456t-79-212q26-133 138.5-179T614 37t255 76q192 103 345 257 3 0 5.5-4.5t2-16-6.5-30.5q-3-3-16-17-30-33-102-100.5T916 61Q795-18 656-64.5T377-95Q217-71 127 12.5T18.5 210zM858 1724q0 19 19.5 25.5t42 .5 31.5-25q11-43 21-103 10-58 22-111.5t29-81.5q-26 19-63.5 74t-68 118-33.5 103z"/><glyph unicode="É" horiz-adv-x="1191" d="M18.5 210Q0 324 52 440q43 90 136.5 169.5T400 735t234 36q-104 79-116.5 188.5T570 1168q78 112 179.5 160t207.5 47q154-2 228-73t48-197q-28-104-108.5-153T963 919.5 854 1030q41-13 102 5t108 61 45 104q-7 39-75.5 46.5T882 1226t-133-95q-64-94-51-159t78.5-111T936 775q62-29 61.5-67.5t-40-63.5-94.5-14q-169 37-320.5-17T300 456t-79-212q26-133 138.5-179T614 37t255 76q192 103 345 257 3 0 5.5-4.5t2-16-6.5-30.5q-3-3-16-17-30-33-102-100.5T916 61Q795-18 656-64.5T377-95Q217-71 127 12.5T18.5 210zM922 1415q17 28 29 81.5t22 111.5q10 60 21 103 9 19 31.5 25t42-.5 19.5-25.5q-3-40-33.5-103t-68-118-63.5-74z"/><glyph unicode="Ê" horiz-adv-x="1191" d="M18.5 210Q0 324 52 440q43 90 136.5 169.5T400 735t234 36q-104 79-116.5 188.5T570 1168q78 112 179.5 160t207.5 47q154-2 228-73t48-197q-28-104-108.5-153T963 919.5 854 1030q41-13 102 5t108 61 45 104q-7 39-75.5 46.5T882 1226t-133-95q-64-94-51-159t78.5-111T936 775q62-29 61.5-67.5t-40-63.5-94.5-14q-169 37-320.5-17T300 456t-79-212q26-133 138.5-179T614 37t255 76q192 103 345 257 3 0 5.5-4.5t2-16-6.5-30.5q-3-3-16-17-30-33-102-100.5T916 61Q795-18 656-64.5T377-95Q217-71 127 12.5T18.5 210zM802 1402q13 15 32 39 42 52 99 118t108 114q48 40 52-13 8-95 19-180 8-72 10-100-13 2-31.5 13.5t-33 25-15.5 21.5q-1 22-2.5 50.5t-3.5 78.5q-23-19-68-68.5t-82-95.5q-20-1-32-2-10-1-22-1h-30z"/><glyph unicode="Ë" horiz-adv-x="1191" d="M18.5 210Q0 324 52 440q43 90 136.5 169.5T400 735t234 36q-104 79-116.5 188.5T570 1168q78 112 179.5 160t207.5 47q154-2 228-73t48-197q-28-104-108.5-153T963 919.5 854 1030q41-13 102 5t108 61 45 104q-7 39-75.5 46.5T882 1226t-133-95q-64-94-51-159t78.5-111T936 775q62-29 61.5-67.5t-40-63.5-94.5-14q-169 37-320.5-17T300 456t-79-212q26-133 138.5-179T614 37t255 76q192 103 345 257 3 0 5.5-4.5t2-16-6.5-30.5q-3-3-16-17-30-33-102-100.5T916 61Q795-18 656-64.5T377-95Q217-71 127 12.5T18.5 210zm745 1216.5q-.5 1.5 2.5 7.5 2 3 4 8 9 19 19 39.5t17 32.5q2 2 3 4 3 5 5 7.5t5 3.5 10 1h2q64 7 114-2 2-1 3-1 12-2 13.5-4.5T958 1512q-1-3-3-7-4-9-10.5-21.5T932 1459t-9-19l-5-10q-2-5-3.5-7t-4.5-2-8 1-8 1q-55 7-116 4-4 0-7-1-7-1-7.5.5zm218-2q-.5 1.5 2.5 7.5 2 3 4 8 9 19 19 39.5t17 32.5q2 2 3 4 3 5 5 7.5t5 3.5 10 1h2q64 7 114-2 2-1 3-1 12-2 13.5-4.5t-3.5-10.5q-1-3-3-7-4-9-10.5-21.5T1150 1457t-9-19l-5-10q-2-5-3.5-7t-4.5-2-8 1-8 1q-55 7-116 4-4 0-7-1-7-1-7.5.5z"/><glyph unicode="Ì" horiz-adv-x="583" d="M17 916.5Q34 1008 65 1073q70 139 175 215t214 101.5 193 15 112-44.5q29-31-9-126-150-354-290-669Q345 304 211-6q-10-17-50-1T81.5 43 32 116l14 26q94 211 262 577.5T565 1275q16 31-5 28-155-32-270.5-152T127 883q-53-178-18-295-73 57-91 147t-1 181.5zM423 1740q0 19 19.5 25.5t42 .5 31.5-25q11-43 21-103 10-58 22-111.5t29-81.5q-26 19-63.5 74t-68 118-33.5 103z"/><glyph unicode="Í" horiz-adv-x="583" d="M17 916.5Q34 1008 65 1073q70 139 175 215t214 101.5 193 15 112-44.5q29-31-9-126-150-354-290-669Q345 304 211-6q-10-17-50-1T81.5 43 32 116l14 26q94 211 262 577.5T565 1275q16 31-5 28-155-32-270.5-152T127 883q-53-178-18-295-73 57-91 147t-1 181.5zM511 1439q17 28 29 81.5t22 111.5q10 60 21 103 9 19 31.5 25t42-.5T676 1734q-3-40-33.5-103t-68-118-63.5-74z"/><glyph unicode="Î" horiz-adv-x="583" d="M17 916.5Q34 1008 65 1073q70 139 175 215t214 101.5 193 15 112-44.5q29-31-9-126-150-354-290-669Q345 304 211-6q-10-17-50-1T81.5 43 32 116l14 26q94 211 262 577.5T565 1275q16 31-5 28-155-32-270.5-152T127 883q-53-178-18-295-73 57-91 147t-1 181.5zM361 1441q13 15 32 39 42 52 99 118t108 114q48 40 52-13 8-95 19-180 8-72 10-100-13 2-31.5 13.5t-33 25T601 1479q-1 22-2.5 50.5T595 1608q-23-19-68-68.5t-82-95.5q-20-1-32-2-10-1-22-1h-30z"/><glyph unicode="Ï" horiz-adv-x="583" d="M17 916.5Q34 1008 65 1073q70 139 175 215t214 101.5 193 15 112-44.5q29-31-9-126-150-354-290-669Q345 304 211-6q-10-17-50-1T81.5 43 32 116l14 26q94 211 262 577.5T565 1275q16 31-5 28-155-32-270.5-152T127 883q-53-178-18-295-73 57-91 147t-1 181.5zm356.5 531q-.5 1.5 2.5 7.5 2 3 4 8 9 19 19 39.5t17 32.5q2 2 3 4 3 5 5 7.5t5 3.5 10 1h2q64 7 114-2 2-1 3-1 12-2 13.5-4.5T568 1533q-1-3-3-7-4-9-10.5-21.5T542 1480t-9-19l-5-10q-2-5-3.5-7t-4.5-2-8 1-8 1q-55 7-116 4-4 0-7-1-7-1-7.5.5zm218-2q-.5 1.5 2.5 7.5 2 3 4 8 9 19 19 39.5t17 32.5q2 2 3 4 3 5 5 7.5t5 3.5 10 1h2q64 7 114-2 2-1 3-1 12-2 13.5-4.5T786 1531q-1-3-3-7-4-9-10.5-21.5T760 1478t-9-19l-5-10q-2-5-3.5-7t-4.5-2-8 1-8 1q-55 7-116 4-4 0-7-1-7-1-7.5.5z"/><glyph unicode="Ð" horiz-adv-x="1344" d="M14 78q116 234 233 489-47 0-96-1-20 1-21 11t9.5 23 24 22.5T185 633q38 2 93 3 141 307 283 588 1 3 3.5 8.5t4.5 11.5 1 9q-2 2-5.5 2.5t-7.5.5h-2q-46 1-130-46t-168.5-138.5-132-224.5T104 542q-71 56-87.5 150.5T14 865q28 158 114.5 264t201 163 225.5 67.5 188-22.5q20-10 15.5-41.5t-22-70.5-34.5-72q-12-23-18-37l10 10q10 8 20 18 91 100 203 155t238 36q62-10 105-43 131-112 137.5-295T1316 611t-242-373T730-16 344-47Q253-16 243.5 55.5T288 198q88 111 301 179.5t484 46.5q-69-6-178.5-30.5t-222.5-62-194-84-93-96.5q-3-33 54-49 138-28 292.5 56.5T1006 396q1 1 1 2 2 2 3 4 6 6 22.5 10.5t34.5 7 28 3.5q-13 4-32 6.5t-29 2.5q115 149 174.5 310t49 287-106.5 169q-81 29-178-13t-190.5-125.5-166.5-178T509 713q-18-39-35-76h114q109-1 158-2 8-3 3.5-16.5T731 590t-33-21q-142 1-256 0-51-109-100-212-89-186-118-256-2-4-11-27-9-24-21.5-55.5t-22-56T158-66q-9-10-35 3T68.5-24.5 23 29.5 14 78z"/><glyph unicode="Ñ" horiz-adv-x="1295" d="M3 845.5Q6 919 22 971q56 177 178.5 281t260 138 240.5 1q63-22 62.5-64t-23.5-93q-87-207-162.5-380.5T472 621q3 5 6 12 23 46 78.5 146t135 218T866 1214t196.5 142.5 201.5-4.5q75-44 64-117.5t-49-151.5q-8-19-15-37-18-43-67-149-48-107-107.5-241.5t-111-264-75-218.5.5-104q37-13 111 32t156.5 119.5T1315 370h1l3-3 3.5-7.5 1.5-15.5-3-28q-84-108-205-211.5T856-28q-61-14-97 30-47 76-10.5 236T861 585t147 342q53 116 80.5 184.5t11.5 66.5q-97-29-196.5-141.5T710.5 768t-173-315.5T401 171q-31-68-54-114-56-72-105.5-86T155-6q-43 49-48.5 142T132 305q52 120 121 281 164 386 304 689 16 30-5 28-65-1-152.5-56.5t-167-153-120-226.5T102 587q-59 44-80.5 114.5T3 845.5zM466 610q2 2 5 10-3-7-5-10zm160 839q-1 65 31 103t78 55.5 88 19.5q46 2 78-15t60-40q26-21 54.5-37.5t67.5-16.5q33 0 61.5 17t62.5 45q16 13 35 28-1-92-52.5-135t-114.5-50q-54-6-89.5 11t-65.5 42q-41 36-100 53-51 8-99-17t-95-63z"/><glyph unicode="Ò" horiz-adv-x="1137" d="M12 199Q0 309 41.5 421.5T170 617q6-6 13-19.5t11-27.5-1-21Q85 410 84 279.5T190 94q113-47 236.5 7.5T661 271t188 252q116 209 148 361t10 244.5-67 125.5q-52 39-142 33t-192-65.5T417 1040q-62-92-86.5-186.5T329 687t103-98q-190-23-262 63.5T125.5 878t137 272T547 1354q131 52 254.5 60.5T1023 1355q120-92 149.5-246t-14-333.5T1019 426Q892 204 703.5 68T303-66Q166-59 95 15T12 199zm615 1535q0 19 19.5 25.5t42 .5 31.5-25q11-43 21-103 10-58 22-111.5t29-81.5q-26 19-63.5 74t-68 118-33.5 103z"/><glyph unicode="Ó" horiz-adv-x="1137" d="M12 199Q0 309 41.5 421.5T170 617q6-6 13-19.5t11-27.5-1-21Q85 410 84 279.5T190 94q113-47 236.5 7.5T661 271t188 252q116 209 148 361t10 244.5-67 125.5q-52 39-142 33t-192-65.5T417 1040q-62-92-86.5-186.5T329 687t103-98q-190-23-262 63.5T125.5 878t137 272T547 1354q131 52 254.5 60.5T1023 1355q120-92 149.5-246t-14-333.5T1019 426Q892 204 703.5 68T303-66Q166-59 95 15T12 199zm749 1247q17 28 29 81.5t22 111.5q10 60 21 103 9 19 31.5 25t42-.5T926 1741q-3-40-33.5-103t-68-118-63.5-74z"/><glyph unicode="Ô" horiz-adv-x="1137" d="M12 199Q0 309 41.5 421.5T170 617q6-6 13-19.5t11-27.5-1-21Q85 410 84 279.5T190 94q113-47 236.5 7.5T661 271t188 252q116 209 148 361t10 244.5-67 125.5q-52 39-142 33t-192-65.5T417 1040q-62-92-86.5-186.5T329 687t103-98q-190-23-262 63.5T125.5 878t137 272T547 1354q131 52 254.5 60.5T1023 1355q120-92 149.5-246t-14-333.5T1019 426Q892 204 703.5 68T303-66Q166-59 95 15T12 199zm553 1264q13 15 32 39 42 52 99 118t108 114q48 40 52-13 8-95 19-180 8-72 10-100-13 2-31.5 13.5t-33 25T805 1501q-1 22-2.5 50.5T799 1630q-23-19-68-68.5t-82-95.5q-20-1-32-2-10-1-22-1h-30z"/><glyph unicode="Õ" horiz-adv-x="1137" d="M12 199Q0 309 41.5 421.5T170 617q6-6 13-19.5t11-27.5-1-21Q85 410 84 279.5T190 94q113-47 236.5 7.5T661 271t188 252q116 209 148 361t10 244.5-67 125.5q-52 39-142 33t-192-65.5T417 1040q-62-92-86.5-186.5T329 687t103-98q-190-23-262 63.5T125.5 878t137 272T547 1354q131 52 254.5 60.5T1023 1355q120-92 149.5-246t-14-333.5T1019 426Q892 204 703.5 68T303-66Q166-59 95 15T12 199zm486 1283q-1 65 31 103t78 55.5 88 19.5q46 2 78-15t60-40q26-21 54.5-37.5T955 1551q33 0 61.5 17t62.5 45q16 13 35 28-1-92-52.5-135T947 1456q-54-6-89.5 11t-65.5 42q-41 36-100 53-51 8-99-17t-95-63z"/><glyph unicode="Ö" horiz-adv-x="1137" d="M12 199Q0 309 41.5 421.5T170 617q6-6 13-19.5t11-27.5-1-21Q85 410 84 279.5T190 94q113-47 236.5 7.5T661 271t188 252q116 209 148 361t10 244.5-67 125.5q-52 39-142 33t-192-65.5T417 1040q-62-92-86.5-186.5T329 687t103-98q-190-23-262 63.5T125.5 878t137 272T547 1354q131 52 254.5 60.5T1023 1355q120-92 149.5-246t-14-333.5T1019 426Q892 204 703.5 68T303-66Q166-59 95 15T12 199zm547.5 1254.5q-.5 1.5 2.5 7.5 2 3 4 8 9 19 19 39.5t17 32.5q2 2 3 4 3 5 5 7.5t5 3.5 10 1h2q64 7 114-2 2-1 3-1 12-2 13.5-4.5T754 1539q-1-3-3-7-4-9-10.5-21.5T728 1486t-9-19l-5-10q-2-5-3.5-7t-4.5-2-8 1-8 1q-55 7-116 4-4 0-7-1-7-1-7.5.5zm218-2q-.5 1.5 2.5 7.5 2 3 4 8 9 19 19 39.5t17 32.5q2 2 3 4 3 5 5 7.5t5 3.5 10 1h2q64 7 114-2 2-1 3-1 12-2 13.5-4.5T972 1537q-1-3-3-7-4-9-10.5-21.5T946 1484t-9-19l-5-10q-2-5-3.5-7t-4.5-2-8 1-8 1q-55 7-116 4-4 0-7-1-7-1-7.5.5z"/><glyph unicode="×" horiz-adv-x="873" d="M11 185q8 17 56.5 78t113 137.5T300 542q-39 170-63 305-1 4-2 11-3 15-6 31.5t0 22.5q6 9 28.5 15t51 7.5T360 931q5-1 9-2 11-2 15.5-3.5t6-5.5 2.5-12v-5q3-21 8-53 11-59 28-145v-1q1-2 1-4 0-1 1.5-8.5T434 675q2-11 3.5-19t1.5-9v4q-1 8-1.5 19t0 20.5T441 704q0 1 .5 1h.5v1l.5.5.5.5q35 42 67 80 125 157 173 183 31 10 60.5 6t53-14 36.5-19.5 12-11.5q-24 3-39-5t-27-19q-5-5-11-9-35-29-118.5-124.5T463 554q37-155 86-266 30-68 48-102.5T669.5 75t-76-23.5T417 204q-45 87-79 199l-26-32q-97-118-164-198T72 90q-41 3-58 36-14 30-3 59z"/><glyph unicode="Ø" horiz-adv-x="1137" d="M10-37Q-1-5 27 36q10 13 21 27 3 3 5 7-33 57-41 129Q0 309 41.5 421.5T170 617q6-6 13-19.5t11-27.5-1-21Q85 410 84 280q-1-75 34-125 179 235 428 560 239 312 409 526-7 7-15 13-52 39-142 33t-192-65.5T417 1040q-62-92-86.5-186.5T329 687t103-98q-190-23-262 63.5T125.5 878t137 272T547 1354q131 52 254.5 60.5T1023 1355q7-6 14-11 71 83 116 97 44 14 56.5-11.5T1199 1370q-32-42-84-113 42-65 58-148 29-154-14.5-333.5T1019 426Q892 204 703.5 68T303-66q-97 5-161 44-3-4-6-7-44-47-79.5-43.5T10-37zM227 81q96-25 200 21 123 54 234 169t188 252q116 209 148 361 30 141 13 231-200-271-451-605Q361 246 227 81z"/><glyph unicode="Ù" horiz-adv-x="1456" d="M43 933q21 122 102.5 234T370 1350q83 39 198.5 53t192.5-25q22-13 30.5-41t-3.5-61q-22-55-76-180.5T590 825Q482 589 443.5 412T428 155.5t99.5-23.5T727 419q45 86 93 183 86 176 179.5 346.5t190 288T1381 1372q37 5 85 8t82.5-1.5 31.5-21.5q-39-72-135-272t-188-418q-57-132-105-263.5T1086 184q-3-14-6-29-11-39-10-69t38-39q50-6 113 23.5t113 67.5q125 98 227 215l16 18q5 1 8.5-13t-4.5-42q-100-131-234-232-74-55-180-103T972-61q-75 11-88.5 90.5t14 195 74 237 91 218T1127 816q-82-150-146-301-51-121-112-240-94-175-209-257.5t-217.5-71T283.5 65 248 374.5 402 877q25 56 51 113 43 96 80.5 177.5T593 1291q5 14-10 12-118-18-235.5-121t-184-259.5T131 587Q0 682 43 933zm822 780q0 19 19.5 25.5t42 .5 31.5-25q11-43 21-103 10-58 22-111.5t29-81.5q-26 19-63.5 74t-68 118-33.5 103z"/><glyph unicode="Ú" horiz-adv-x="1456" d="M43 933q21 122 102.5 234T370 1350q83 39 198.5 53t192.5-25q22-13 30.5-41t-3.5-61q-22-55-76-180.5T590 825Q482 589 443.5 412T428 155.5t99.5-23.5T727 419q45 86 93 183 86 176 179.5 346.5t190 288T1381 1372q37 5 85 8t82.5-1.5 31.5-21.5q-39-72-135-272t-188-418q-57-132-105-263.5T1086 184q-3-14-6-29-11-39-10-69t38-39q50-6 113 23.5t113 67.5q125 98 227 215l16 18q5 1 8.5-13t-4.5-42q-100-131-234-232-74-55-180-103T972-61q-75 11-88.5 90.5t14 195 74 237 91 218T1127 816q-82-150-146-301-51-121-112-240-94-175-209-257.5t-217.5-71T283.5 65 248 374.5 402 877q25 56 51 113 43 96 80.5 177.5T593 1291q5 14-10 12-118-18-235.5-121t-184-259.5T131 587Q0 682 43 933zm979 461q17 28 29 81.5t22 111.5q10 60 21 103 9 19 31.5 25t42-.5 19.5-25.5q-3-40-33.5-103t-68-118-63.5-74z"/><glyph unicode="Û" horiz-adv-x="1456" d="M43 933q21 122 102.5 234T370 1350q83 39 198.5 53t192.5-25q22-13 30.5-41t-3.5-61q-22-55-76-180.5T590 825Q482 589 443.5 412T428 155.5t99.5-23.5T727 419q45 86 93 183 86 176 179.5 346.5t190 288T1381 1372q37 5 85 8t82.5-1.5 31.5-21.5q-39-72-135-272t-188-418q-57-132-105-263.5T1086 184q-3-14-6-29-11-39-10-69t38-39q50-6 113 23.5t113 67.5q125 98 227 215l16 18q5 1 8.5-13t-4.5-42q-100-131-234-232-74-55-180-103T972-61q-75 11-88.5 90.5t14 195 74 237 91 218T1127 816q-82-150-146-301-51-121-112-240-94-175-209-257.5t-217.5-71T283.5 65 248 374.5 402 877q25 56 51 113 43 96 80.5 177.5T593 1291q5 14-10 12-118-18-235.5-121t-184-259.5T131 587Q0 682 43 933zm811 487q13 15 32 39 42 52 99 118t108 114q48 40 52-13 8-95 19-180 8-72 10-100-13 2-31.5 13.5t-33 25-15.5 21.5q-1 22-2.5 50.5t-3.5 78.5q-23-19-68-68.5t-82-95.5q-20-1-32-2-10-1-22-1h-30z"/><glyph unicode="Ü" horiz-adv-x="1456" d="M43 933q21 122 102.5 234T370 1350q83 39 198.5 53t192.5-25q22-13 30.5-41t-3.5-61q-22-55-76-180.5T590 825Q482 589 443.5 412T428 155.5t99.5-23.5T727 419q45 86 93 183 86 176 179.5 346.5t190 288T1381 1372q37 5 85 8t82.5-1.5 31.5-21.5q-39-72-135-272t-188-418q-57-132-105-263.5T1086 184q-3-14-6-29-11-39-10-69t38-39q50-6 113 23.5t113 67.5q125 98 227 215l16 18q5 1 8.5-13t-4.5-42q-100-131-234-232-74-55-180-103T972-61q-75 11-88.5 90.5t14 195 74 237 91 218T1127 816q-82-150-146-301-51-121-112-240-94-175-209-257.5t-217.5-71T283.5 65 248 374.5 402 877q25 56 51 113 43 96 80.5 177.5T593 1291q5 14-10 12-118-18-235.5-121t-184-259.5T131 587Q0 682 43 933zm769.5 496.5q-.5 1.5 2.5 7.5 2 3 4 8 9 19 19 39.5t17 32.5q2 2 3 4 3 5 5 7.5t5 3.5 10 1h2q64 7 114-2 2-1 3-1 12-2 13.5-4.5t-3.5-10.5q-1-3-3-7-4-9-10.5-21.5T981 1462t-9-19l-5-10q-2-5-3.5-7t-4.5-2-8 1-8 1q-55 7-116 4-4 0-7-1-7-1-7.5.5zm218-2q-.5 1.5 2.5 7.5 2 3 4 8 9 19 19 39.5t17 32.5q2 2 3 4 3 5 5 7.5t5 3.5 10 1h2q64 7 114-2 2-1 3-1 12-2 13.5-4.5t-3.5-10.5q-1-3-3-7-4-9-10.5-21.5T1199 1460t-9-19l-5-10q-2-5-3.5-7t-4.5-2-8 1-8 1q-55 7-116 4-4 0-7-1-7-1-7.5.5z"/><glyph unicode="Ý" horiz-adv-x="1311" d="M.5 809Q1 861 6 894q25 179 122 291.5T349.5 1351t230.5 55q72-1 117.5-21t55.5-36q12-23 2.5-64.5t-29-85T692 1126l-10-20Q575 871 547.5 705T558 474t127 1.5T899 772q58 111 105 206 71 146 131.5 245.5T1264 1360q27 13 83 18t107-2 62-29q6-21-1-52.5t-18-60-18-42.5q-41-87-104-219-74-157-150.5-315.5T1099 406q-5-11-25-46-24-44-54.5-99T970 168q-4-9-16-30.5T931 95q-7-13-11.5-21.5T914 63q115-8 198.5 46T1266 245q-70-136-173-202T872-15q-11-23-20-42-17-33-33.5-64T778-193q-69-117-171-197-72-53-138.5-64.5T346-445q-100 39-136.5 116T194-165q18 70 69 132T396 68q81 37 148 39.5t145-7.5q5-1 11-1 12-2 41.5-7T793 79q-4 2-10 4-19 6-34 17.5t-5 36.5q105 221 215 414 73 130 143 265 0 1-7.5-13t-20.5-39q-28-51-60.5-111.5T965 565Q839 349 695 280t-246 9-101 304 165 601q4 9 15 26 10 18 20.5 36.5t14 32-5.5 14.5q-55 0-141.5-50t-170-144T117 883t-17-296q-58 53-79 111.5T.5 809zm385-916q-17.5-51 1.5-93.5t59.5-54T534-224q57 54 90.5 106T691 12q-52 14-112.5 4T470-19q-67-37-84.5-88zM922 1415q17 28 29 81.5t22 111.5q10 60 21 103 9 19 31.5 25t42-.5 19.5-25.5q-3-40-33.5-103t-68-118-63.5-74z"/><glyph unicode="Þ" horiz-adv-x="1176" d="M6 27Q0 57 66.5 206.5T231 553t189 368.5T555 1166q19 27 63.5 29t78.5-16.5 20-53.5q-59-130-122-260 91 10 200 .5T997.5 820t136-105.5.5-179.5q-61-142-177.5-200.5t-257-66.5-273.5 0q-72 4-134 4-55-103-110-207l-8-14q-51-91-97.5-90.5T6 27zm376 416q73 4 174-6 92-9 182.5-9.5t158 26T986 551q20 81-28.5 119T825 717.5 655.5 720 515 704q-66-131-133-261z"/><glyph unicode="ß" horiz-adv-x="1123" d="M12.5 13.5Q0 42 16 76q26 51 78 169.5T210 513q98 229 183 419.5T499 1149q11 8 45.5 10.5t69.5-1 47-11.5q1-2-8-22t-23-48q-16-34-33-69 45 81 125 143.5t177 45.5q82-19 108-119t-39-260q-2-6-14-29.5T927.5 736 901 685.5 887 662q111-27 173.5-109t60.5-183-82.5-185-255-115.5T326 94q5 12 20 36.5t41 46.5 63 28q200-60 331.5-27.5t186 113.5 22 166.5T828 589q-89-115-196-129-81-10-128.5 32T472 605q16 52 70 70.5T664.5 691 794 674q-2 1-8 3-7 3-14 5.5t-11.5 6-1.5 7.5q64 84 95 186 41 122 21.5 169t-72.5 36-114-63q-86-77-176.5-236T344 458 219 174q-24-56-36-83-2-4-11-24-9-22-22-51t-23-51.5T115-61q-12-13-27-5T57-42q-4 4-8 7-24 20-36.5 48.5zM325 92q-2-6 0 1 0 1 1 1 0-1-1-2zm253.5 513q4.5-2 14-2.5t19.5-.5 16 2q20 6 29 10t12 6q1 0 2 1-1-1-9-1-9 1-26 0t-35-4-22.5-6 0-5z"/><glyph unicode="à" horiz-adv-x="855" d="M-38 147.5q-6 85.5 20 164T26 422q49 94 126 164.5t163 100 163 .5q38-18 40.5-53T507 566q-10-21-16-34t-5-10q10 16 21 44 13 24 23.5 46t12.5 26q1 1 2 3 2 4 4 8.5t5 6.5q7 6 31 9t52.5 2 49.5-5.5 24-11.5q-13-24-49.5-103.5t-76-176-62-173T517 104q33-23 97.5 19t136 113T877 371q1 0 3.5-1.5t4.5-7.5 2-17-4-29q-53-71-121-141.5T595 45q-20-13-60-27T454.5-1 390 8q-19 14-26 37t-7 46.5 3 40.5 4 19q-20-48-79-90.5T158 0 44 8q-76 54-82 139.5zM118.5 277Q89 188 132 133q24-23 71.5 5.5t99 85T389 341q40 69 58 122t6 77q-35 56-103.5 23t-135-115-96-171zM289 1073q0 19 19.5 25.5t42 .5 31.5-25q11-43 21-103 10-58 22-111.5t29-81.5q-26 19-63.5 74t-68 118-33.5 103z"/><glyph unicode="á" horiz-adv-x="855" d="M-38 147.5q-6 85.5 20 164T26 422q49 94 126 164.5t163 100 163 .5q38-18 40.5-53T507 566q-10-21-16-34t-5-10q10 16 21 44 13 24 23.5 46t12.5 26q1 1 2 3 2 4 4 8.5t5 6.5q7 6 31 9t52.5 2 49.5-5.5 24-11.5q-13-24-49.5-103.5t-76-176-62-173T517 104q33-23 97.5 19t136 113T877 371q1 0 3.5-1.5t4.5-7.5 2-17-4-29q-53-71-121-141.5T595 45q-20-13-60-27T454.5-1 390 8q-19 14-26 37t-7 46.5 3 40.5 4 19q-20-48-79-90.5T158 0 44 8q-76 54-82 139.5zM118.5 277Q89 188 132 133q24-23 71.5 5.5t99 85T389 341q40 69 58 122t6 77q-35 56-103.5 23t-135-115-96-171zM341 761q17 28 29 81.5T392 954q10 60 21 103 9 19 31.5 25t42-.5T506 1056q-3-40-33.5-103t-68-118-63.5-74z"/><glyph unicode="â" horiz-adv-x="855" d="M-38 147.5q-6 85.5 20 164T26 422q49 94 126 164.5t163 100 163 .5q38-18 40.5-53T507 566q-10-21-16-34t-5-10q10 16 21 44 13 24 23.5 46t12.5 26q1 1 2 3 2 4 4 8.5t5 6.5q7 6 31 9t52.5 2 49.5-5.5 24-11.5q-13-24-49.5-103.5t-76-176-62-173T517 104q33-23 97.5 19t136 113T877 371q1 0 3.5-1.5t4.5-7.5 2-17-4-29q-53-71-121-141.5T595 45q-20-13-60-27T454.5-1 390 8q-19 14-26 37t-7 46.5 3 40.5 4 19q-20-48-79-90.5T158 0 44 8q-76 54-82 139.5zM118.5 277Q89 188 132 133q24-23 71.5 5.5t99 85T389 341q40 69 58 122t6 77q-35 56-103.5 23t-135-115-96-171zM294 772q13 15 32 39 42 52 99 118t108 114q48 40 52-13 8-95 19-180 8-72 10-100-13 2-31.5 13.5t-33 25T534 810q-1 22-2.5 50.5T528 939q-23-19-68-68.5T378 775q-20-1-32-2-10-1-22-1h-30z"/><glyph unicode="ã" horiz-adv-x="855" d="M-38 147.5q-6 85.5 20 164T26 422q49 94 126 164.5t163 100 163 .5q38-18 40.5-53T507 566q-10-21-16-34t-5-10q10 16 21 44 13 24 23.5 46t12.5 26q1 1 2 3 2 4 4 8.5t5 6.5q7 6 31 9t52.5 2 49.5-5.5 24-11.5q-13-24-49.5-103.5t-76-176-62-173T517 104q33-23 97.5 19t136 113T877 371q1 0 3.5-1.5t4.5-7.5 2-17-4-29q-53-71-121-141.5T595 45q-20-13-60-27T454.5-1 390 8q-19 14-26 37t-7 46.5 3 40.5 4 19q-20-48-79-90.5T158 0 44 8q-76 54-82 139.5zM108 803q-1 65 31 103t78 55.5 88 19.5q46 2 78-15t60-40q26-21 54.5-37.5T565 872q33 0 61.5 17t62.5 45q16 13 35 28-1-92-52.5-135T557 777q-54-6-89.5 11T402 830q-41 36-100 53-51 8-99-17t-95-63zm10.5-526Q89 188 132 133q24-23 71.5 5.5t99 85T389 341q40 69 58 122t6 77q-35 56-103.5 23t-135-115-96-171z"/><glyph unicode="ä" horiz-adv-x="855" d="M-38 147.5q-6 85.5 20 164T26 422q49 94 126 164.5t163 100 163 .5q38-18 40.5-53T507 566q-10-21-16-34t-5-10q10 16 21 44 13 24 23.5 46t12.5 26q1 1 2 3 2 4 4 8.5t5 6.5q7 6 31 9t52.5 2 49.5-5.5 24-11.5q-13-24-49.5-103.5t-76-176-62-173T517 104q33-23 97.5 19t136 113T877 371q1 0 3.5-1.5t4.5-7.5 2-17-4-29q-53-71-121-141.5T595 45q-20-13-60-27T454.5-1 390 8q-19 14-26 37t-7 46.5 3 40.5 4 19q-20-48-79-90.5T158 0 44 8q-76 54-82 139.5zM118.5 277Q89 188 132 133q24-23 71.5 5.5t99 85T389 341q40 69 58 122t6 77q-35 56-103.5 23t-135-115-96-171zm112 495.5q-.5 1.5 2.5 7.5 2 3 4 8 9 19 19 39.5t17 32.5q2 2 3 4 3 5 5 7.5t5 3.5 10 1h2q64 7 114-2 2-1 3-1 12-2 13.5-4.5T425 858q-1-3-3-7-4-9-10.5-21.5T399 805t-9-19l-5-10q-2-5-3.5-7t-4.5-2-8 1-8 1q-55 7-116 4-4 0-7-1-7-1-7.5.5zm218-2q-.5 1.5 2.5 7.5 2 3 4 8 9 19 19 39.5t17 32.5q2 2 3 4 3 5 5 7.5t5 3.5 10 1h2q64 7 114-2 2-1 3-1 12-2 13.5-4.5T643 856q-1-3-3-7-4-9-10.5-21.5T617 803t-9-19l-5-10q-2-5-3.5-7t-4.5-2-8 1-8 1q-55 7-116 4-4 0-7-1-7-1-7.5.5z"/><glyph unicode="å" horiz-adv-x="855" d="M-38 147.5q-6 85.5 20 164T26 422q49 94 126 164.5t163 100 163 .5q38-18 40.5-53T507 566q-10-21-16-34t-5-10q10 16 21 44 13 24 23.5 46t12.5 26q1 1 2 3 2 4 4 8.5t5 6.5q7 6 31 9t52.5 2 49.5-5.5 24-11.5q-13-24-49.5-103.5t-76-176-62-173T517 104q33-23 97.5 19t136 113T877 371q1 0 3.5-1.5t4.5-7.5 2-17-4-29q-53-71-121-141.5T595 45q-20-13-60-27T454.5-1 390 8q-19 14-26 37t-7 46.5 3 40.5 4 19q-20-48-79-90.5T158 0 44 8q-76 54-82 139.5zM118.5 277Q89 188 132 133q24-23 71.5 5.5t99 85T389 341q40 69 58 122t6 77q-35 56-103.5 23t-135-115-96-171zm203 531Q313 855 344 919q27 56 62.5 85.5T499 1034q62-4 68.5-49T555 895q-11-27-34.5-60t-58-57-77.5-23q-55 6-63.5 53zm57 72.5Q366 838 388 815q23-17 50 2.5t47 55 22 68-25 42.5q-31 6-61-27t-42.5-75.5z"/><glyph unicode="æ" horiz-adv-x="853" d="M-39.5 147.5Q-45 233-19 311.5T25 422q49 94 127 165.5T316.5 688t161.5-4q58-32 26-117 3 3 7.5 12.5t24 28.5 48 40 100 44.5T852 701q55-9 99.5-39.5T1015 572q17-67-13-136t-96-113.5T749 285q-56 4-101 30.5T580 414q115-28 186.5-6.5T870 471q42 52 31.5 93T801 585q-59-17-115.5-63T595 416q-6 0-10.5 1t-11.5 5l1-4q1-4 3-9t3-10q1-1 1-2t.5-1.5 0-1-.5-1.5q-1-1-1-2-28-65-32-121-6-53 14-107.5T642 88q75-18 160.5 8.5T939 165q109 96 174 169 20 22 35 37 7-1 8.5-16.5T1153 316q-94-132-238-246-77-60-175-88t-208 5q-66 24-102 75l-42 63q-39-34-85.5-64t-125-56.5T43 8q-77 54-82.5 139.5zM119 270q-28-87 11-137 26-25 74.5 4t100 86T391 341q40 69 58 123.5t1 83.5q-39 49-107 11.5t-132-120T119 270z"/><glyph unicode="ç" horiz-adv-x="715" d="M-16.5 307Q10 425 86.5 528.5T272 681t231 3q72-33 94-95t1-121q-30-74-82.5-96t-103 0-71.5 81q52-13 96 24.5t41 85.5q-8 37-62 29t-121-54.5-115-124T135 233q7-94 58.5-126.5T316 83q113 13 187.5 67T646 278l12 12q16 16 31 34 22 24 46 47 6-1 8-10t1-21-4-22q-71-99-176-197Q482 45 383 1q-89-40-190-28-4-8-6-13-2-6 4-5 47 5 71-10t15-55q-7-32-31-39.5t-68-6.5q-28 0-65-2 2 16 11 30t31 16h21q31 1 42 3.5T231-96q2 11-13 14t-41 3q-14 1-30 2-7 2-2 21 3 16 17 34Q40 6-1 96q-42 93-15.5 211z"/><glyph unicode="è" d="M-14 126.5Q-43 228-7 349 27 458 97 543q66 84 155 128.5T438 701q55-9 99.5-39.5T601 572q17-67-13-136t-96-113.5T335 285q-56 4-101 30.5T166 414q115-28 186.5-6.5T456 471q42 52 31.5 93T387 585q-59-17-115.5-63T181 416q-6 0-10.5 1t-11.5 5l1-4 3-9 3-10q1-1 1-2t.5-1.5 0-1-.5-1.5q-1-1-1-2-28-65-32-121-6-53 14-107.5T228 88q75-18 160.5 8.5T525 165q109 96 174 169 20 22 35 37 7-1 8.5-16.5T739 316Q645 184 501 70q-77-60-175-88t-208 5Q15 25-14 126.5zM289 1073q0 19 19.5 25.5t42 .5 31.5-25q11-43 21-103 10-58 22-111.5t29-81.5q-26 19-63.5 74t-68 118-33.5 103z"/><glyph unicode="é" d="M-14 126.5Q-43 228-7 349 27 458 97 543q66 84 155 128.5T438 701q55-9 99.5-39.5T601 572q17-67-13-136t-96-113.5T335 285q-56 4-101 30.5T166 414q115-28 186.5-6.5T456 471q42 52 31.5 93T387 585q-59-17-115.5-63T181 416q-6 0-10.5 1t-11.5 5l1-4 3-9 3-10q1-1 1-2t.5-1.5 0-1-.5-1.5q-1-1-1-2-28-65-32-121-6-53 14-107.5T228 88q75-18 160.5 8.5T525 165q109 96 174 169 20 22 35 37 7-1 8.5-16.5T739 316Q645 184 501 70q-77-60-175-88t-208 5Q15 25-14 126.5zM341 761q17 28 29 81.5T392 954q10 60 21 103 9 19 31.5 25t42-.5T506 1056q-3-40-33.5-103t-68-118-63.5-74z"/><glyph unicode="ê" d="M-14 126.5Q-43 228-7 349 27 458 97 543q66 84 155 128.5T438 701q55-9 99.5-39.5T601 572q17-67-13-136t-96-113.5T335 285q-56 4-101 30.5T166 414q115-28 186.5-6.5T456 471q42 52 31.5 93T387 585q-59-17-115.5-63T181 416q-6 0-10.5 1t-11.5 5l1-4 3-9 3-10q1-1 1-2t.5-1.5 0-1-.5-1.5q-1-1-1-2-28-65-32-121-6-53 14-107.5T228 88q75-18 160.5 8.5T525 165q109 96 174 169 20 22 35 37 7-1 8.5-16.5T739 316Q645 184 501 70q-77-60-175-88t-208 5Q15 25-14 126.5zM212 772q13 15 32 39 42 52 99 118t108 114q48 40 52-13 8-95 19-180 8-72 10-100-13 2-31.5 13.5t-33 25T452 810q-1 22-2.5 50.5T446 939q-23-19-68-68.5T296 775q-20-1-32-2-10-1-22-1h-30z"/><glyph unicode="ë" d="M-14 126.5Q-43 228-7 349 27 458 97 543q66 84 155 128.5T438 701q55-9 99.5-39.5T601 572q17-67-13-136t-96-113.5T335 285q-56 4-101 30.5T166 414q115-28 186.5-6.5T456 471q42 52 31.5 93T387 585q-59-17-115.5-63T181 416q-6 0-10.5 1t-11.5 5l1-4 3-9 3-10q1-1 1-2t.5-1.5 0-1-.5-1.5q-1-1-1-2-28-65-32-121-6-53 14-107.5T228 88q75-18 160.5 8.5T525 165q109 96 174 169 20 22 35 37 7-1 8.5-16.5T739 316Q645 184 501 70q-77-60-175-88t-208 5Q15 25-14 126.5zm195.5 646q-.5 1.5 2.5 7.5 2 3 4 8 9 19 19 39.5t17 32.5q2 2 3 4 3 5 5 7.5t5 3.5 10 1h2q64 7 114-2 2-1 3-1 12-2 13.5-4.5T376 858q-1-3-3-7-4-9-10.5-21.5T350 805t-9-19l-5-10q-2-5-3.5-7t-4.5-2-8 1-8 1q-55 7-116 4-4 0-7-1-7-1-7.5.5zm218-2q-.5 1.5 2.5 7.5 2 3 4 8 9 19 19 39.5t17 32.5q2 2 3 4 3 5 5 7.5t5 3.5 10 1h2q64 7 114-2 2-1 3-1 12-2 13.5-4.5T594 856q-1-3-3-7-4-9-10.5-21.5T568 803t-9-19l-5-10q-2-5-3.5-7t-4.5-2-8 1-8 1q-55 7-116 4-4 0-7-1-7-1-7.5.5z"/><glyph unicode="ì" horiz-adv-x="434" d="M-58.5 58.5q-8.5 55.5 7 131t36.5 139T14 411q48 129 118 244 5 8 30 10.5t54.5 1 51-6T289 648q-13-23-50.5-103.5t-77.5-179-61.5-175T98 99q39-15 99 26t121 102 100 105q33 37 38 39 6 0 9-13.5t-4-40.5q-49-66-119-140T186 50.5 1-1q-51 4-59.5 59.5zM131 1073q0 19 19.5 25.5t42 .5 31.5-25q11-43 21-103 10-58 22-111.5t29-81.5q-26 19-63.5 74t-68 118-33.5 103z"/><glyph unicode="í" horiz-adv-x="434" d="M-58.5 58.5q-8.5 55.5 7 131t36.5 139T14 411q48 129 118 244 5 8 30 10.5t54.5 1 51-6T289 648q-13-23-50.5-103.5t-77.5-179-61.5-175T98 99q39-15 99 26t121 102 100 105q33 37 38 39 6 0 9-13.5t-4-40.5q-49-66-119-140T186 50.5 1-1q-51 4-59.5 59.5zM207 761q17 28 29 81.5T258 954q10 60 21 103 9 19 31.5 25t42-.5T372 1056q-3-40-33.5-103t-68-118-63.5-74z"/><glyph unicode="î" horiz-adv-x="434" d="M-58.5 58.5q-8.5 55.5 7 131t36.5 139T14 411q48 129 118 244 5 8 30 10.5t54.5 1 51-6T289 648q-13-23-50.5-103.5t-77.5-179-61.5-175T98 99q39-15 99 26t121 102 100 105q33 37 38 39 6 0 9-13.5t-4-40.5q-49-66-119-140T186 50.5 1-1q-51 4-59.5 59.5zM50 772q13 15 32 39 42 52 99 118t108 114q48 40 52-13 8-95 19-180 8-72 10-100-13 2-31.5 13.5t-33 25T290 810q-1 22-2.5 50.5T284 939q-23-19-68-68.5T134 775q-20-1-32-2-10-1-22-1H50z"/><glyph unicode="ï" horiz-adv-x="434" d="M-58.5 58.5q-8.5 55.5 7 131t36.5 139T14 411q48 129 118 244 5 8 30 10.5t54.5 1 51-6T289 648q-13-23-50.5-103.5t-77.5-179-61.5-175T98 99q39-15 99 26t121 102 100 105q33 37 38 39 6 0 9-13.5t-4-40.5q-49-66-119-140T186 50.5 1-1q-51 4-59.5 59.5zm100 684Q41 744 44 750q2 3 4 8 9 19 19 39.5T84 830q2 2 3 4 3 5 5 7.5t5 3.5 10 1h2q64 7 114-2 2-1 3-1 12-2 13.5-4.5T236 828q-1-3-3-7-4-9-10.5-21.5T210 775t-9-19l-5-10q-2-5-3.5-7t-4.5-2-8 1-8 1q-55 7-116 4-4 0-7-1-7-1-7.5.5zm218-2q-.5 1.5 2.5 7.5 2 3 4 8 9 19 19 39.5t17 32.5q2 2 3 4 3 5 5 7.5t5 3.5 10 1h2q64 7 114-2 2-1 3-1 12-2 13.5-4.5T454 826q-1-3-3-7-4-9-10.5-21.5T428 773t-9-19l-5-10q-2-5-3.5-7t-4.5-2-8 1-8 1q-55 7-116 4-4 0-7-1-7-1-7.5.5z"/><glyph unicode="ð" horiz-adv-x="1103" d="M63.5 93.5Q13 203 114 402q86 164 201.5 266t235 144.5T768 839t147-89q51 110 25 236-6 27-16 51-2 0-3-1-189-72-316-119-6-3-13-5-15-5-39-1.5t-46 12-30.5 18.5 6.5 18q64 31 230 92 89 32 160 59-34 33-86 54-47 11-74 6.5t-43-5.5q-18-2-29 2.5t-16.5 27.5-8.5 77q190 35 303-21 63-32 103-85 76 29 123 44 17 6 34.5 1.5t45.5-18.5q26-12 21-21t-26-17q-65-28-156-64l8-22q39-126 9-299-29-169-121.5-331.5T711.5 159 341 11Q114-16 63.5 93.5zm164 186.5Q219 199 267 156t166-18q115 35 203.5 108.5T773 406t42.5 158.5T738 670q-2 1-5 2-28 14-61 20t-93-6q-90-15-167-81.5t-126.5-155-58-169.5z"/><glyph unicode="ñ" horiz-adv-x="820" d="M-59 114q0 18 1 32 8 75 33 148.5T16 405l2 6q48 128 118 244 6 8 30.5 10.5t54 1 51-6T293 648q-12-22-57-119.5T144 319q-3-6-10.5-24.5t-15.5-40-14-36.5l-6-15q13 23 29 56 29 61 74 137.5t111 150T472 673q42 22 88 26t73-20 12-84q-8-29-19-56-1-1-1-2-25-63-60-139-40-88-65-155-19-57-25.5-97.5T491 97q32-7 77 20t86 64 64 60q77 78 121 130 8 0 9.5-17.5T845 316q-39-53-86-106-73-81-162.5-141T410-1q-70-4-86.5 47.5t-1 127.5T364 319t40 101q2 5 4 9 10 25 18 47t11 36-2 13q-39-14-95-93.5t-109-172T150 114l-7-14q-2-4-5-8-20-43-53-77.5T-2 2q-47 26-55 81-2 13-2 31zM84 827q-1 65 31 103t78 55.5 88 19.5q46 2 78-15t60-40q26-21 54.5-37.5T541 896q33 0 61.5 17t62.5 45q16 13 35 28-1-92-52.5-135T533 801q-54-6-89.5 11T378 854q-41 36-100 53-51 8-99-17t-95-63z"/><glyph unicode="ò" d="M-22.5 117Q-48 213-12 327.5t115.5 211 183 141 213.5.5q58-26 86.5-72.5T622 505q7-66-6.5-143.5T585 240q42 21 74 54 30 32 51 56 12 14 19 21 6-2 8-12t1-22-4-21q-11-13-20-26-11-14-21-26-1 0-1-1-3-3-5-6-39-41-74.5-61.5T545 162q-35-60-100.5-115.5T293-33 109-23Q3 21-22.5 117zM93 196.5Q94 132 133 94q43-35 100.5-28t106 35 66.5 56q-99-13-154 31.5t-71.5 114T181 436q-39-42-64-108.5t-24-131zM257.5 379q-.5-62 33.5-105.5T408 226h1q22 0 53-.5t47 2.5q-8-1-20.5 0t-21.5 5-6 13q1 2 2 5 0 1 1 1 26 60 31.5 128T493 494q-11 56-46 77t-75 14.5-67-35.5q-21-24-28-50-19-59-19.5-121zm31.5 694q0 19 19.5 25.5t42 .5 31.5-25q11-43 21-103 10-58 22-111.5t29-81.5q-26 19-63.5 74t-68 118-33.5 103z"/><glyph unicode="ó" d="M-22.5 117Q-48 213-12 327.5t115.5 211 183 141 213.5.5q58-26 86.5-72.5T622 505q7-66-6.5-143.5T585 240q42 21 74 54 30 32 51 56 12 14 19 21 6-2 8-12t1-22-4-21q-11-13-20-26-11-14-21-26-1 0-1-1-3-3-5-6-39-41-74.5-61.5T545 162q-35-60-100.5-115.5T293-33 109-23Q3 21-22.5 117zM93 196.5Q94 132 133 94q43-35 100.5-28t106 35 66.5 56q-99-13-154 31.5t-71.5 114T181 436q-39-42-64-108.5t-24-131zM257.5 379q-.5-62 33.5-105.5T408 226h1q22 0 53-.5t47 2.5q-8-1-20.5 0t-21.5 5-6 13q1 2 2 5 0 1 1 1 26 60 31.5 128T493 494q-11 56-46 77t-75 14.5-67-35.5q-21-24-28-50-19-59-19.5-121zM341 761q17 28 29 81.5T392 954q10 60 21 103 9 19 31.5 25t42-.5T506 1056q-3-40-33.5-103t-68-118-63.5-74z"/><glyph unicode="ô" d="M-22.5 117Q-48 213-12 327.5t115.5 211 183 141 213.5.5q58-26 86.5-72.5T622 505q7-66-6.5-143.5T585 240q42 21 74 54 30 32 51 56 12 14 19 21 6-2 8-12t1-22-4-21q-11-13-20-26-11-14-21-26-1 0-1-1-3-3-5-6-39-41-74.5-61.5T545 162q-35-60-100.5-115.5T293-33 109-23Q3 21-22.5 117zM93 196.5Q94 132 133 94q43-35 100.5-28t106 35 66.5 56q-99-13-154 31.5t-71.5 114T181 436q-39-42-64-108.5t-24-131zM203 772q13 15 32 39 42 52 99 118t108 114q48 40 52-13 8-95 19-180 8-72 10-100-13 2-31.5 13.5t-33 25T443 810q-1 22-2.5 50.5T437 939q-23-19-68-68.5T287 775q-20-1-32-2-10-1-22-1h-30zm54.5-393q-.5-62 33.5-105.5T408 226h1q22 0 53-.5t47 2.5q-8-1-20.5 0t-21.5 5-6 13q1 2 2 5 0 1 1 1 26 60 31.5 128T493 494q-11 56-46 77t-75 14.5-67-35.5q-21-24-28-50-19-59-19.5-121z"/><glyph unicode="õ" d="M-22.5 117Q-48 213-12 327.5t115.5 211 183 141 213.5.5q58-26 86.5-72.5T622 505q7-66-6.5-143.5T585 240q42 21 74 54 30 32 51 56 12 14 19 21 6-2 8-12t1-22-4-21q-11-13-20-26-11-14-21-26-1 0-1-1-3-3-5-6-39-41-74.5-61.5T545 162q-35-60-100.5-115.5T293-33 109-23Q3 21-22.5 117zM48 824q-1 65 31 103t78 55.5 88 19.5q46 2 78-15t60-40q26-21 54.5-37.5T505 893q33 0 61.5 17t62.5 45q16 13 35 28-1-92-52.5-135T497 798q-54-6-89.5 11T342 851q-41 36-100 53-51 8-99-17t-95-63zm45-627.5Q94 132 133 94q43-35 100.5-28t106 35 66.5 56q-99-13-154 31.5t-71.5 114T181 436q-39-42-64-108.5t-24-131zM257.5 379q-.5-62 33.5-105.5T408 226h1q22 0 53-.5t47 2.5q-8-1-20.5 0t-21.5 5-6 13q1 2 2 5 0 1 1 1 26 60 31.5 128T493 494q-11 56-46 77t-75 14.5-67-35.5q-21-24-28-50-19-59-19.5-121z"/><glyph unicode="ö" d="M-22.5 117Q-48 213-12 327.5t115.5 211 183 141 213.5.5q58-26 86.5-72.5T622 505q7-66-6.5-143.5T585 240q42 21 74 54 30 32 51 56 12 14 19 21 6-2 8-12t1-22-4-21q-11-13-20-26-11-14-21-26-1 0-1-1-3-3-5-6-39-41-74.5-61.5T545 162q-35-60-100.5-115.5T293-33 109-23Q3 21-22.5 117zM93 196.5Q94 132 133 94q43-35 100.5-28t106 35 66.5 56q-99-13-154 31.5t-71.5 114T181 436q-39-42-64-108.5t-24-131zm137.5 576q-.5 1.5 2.5 7.5 2 3 4 8 9 19 19 39.5t17 32.5q2 2 3 4 3 5 5 7.5t5 3.5 10 1h2q64 7 114-2 2-1 3-1 12-2 13.5-4.5T425 858q-1-3-3-7-4-9-10.5-21.5T399 805t-9-19l-5-10q-2-5-3.5-7t-4.5-2-8 1-8 1q-55 7-116 4-4 0-7-1-7-1-7.5.5zm27-393.5q-.5-62 33.5-105.5T408 226h1q22 0 53-.5t47 2.5q-8-1-20.5 0t-21.5 5-6 13q1 2 2 5 0 1 1 1 26 60 31.5 128T493 494q-11 56-46 77t-75 14.5-67-35.5q-21-24-28-50-19-59-19.5-121zm191 391.5q-.5 1.5 2.5 7.5 2 3 4 8 9 19 19 39.5t17 32.5q2 2 3 4 3 5 5 7.5t5 3.5 10 1h2q64 7 114-2 2-1 3-1 12-2 13.5-4.5T643 856q-1-3-3-7-4-9-10.5-21.5T617 803t-9-19l-5-10q-2-5-3.5-7t-4.5-2-8 1-8 1q-55 7-116 4-4 0-7-1-7-1-7.5.5z"/><glyph unicode="÷" horiz-adv-x="907" d="M.5 321.5Q0 334 12 350.5T39 380t24 15q73 11 217 16.5t281 5.5 191-4q32-4 30-16t-24.5-29-52.5-36q-3-2-5-4-409 5-677-20-22 1-22.5 13.5zM337 190q4 17 7.5 27.5T356 249q2 7 6 17 12 5 36 6t46-1 29-7q-8-22-14-38-7-17-14-39-11 2-32 3.5t-42.5 1.5-33.5-2zm20 292q4 17 7.5 27.5T376 541q2 7 6 17 12 5 36 6t46-1 29-7q-8-22-14-38-7-17-14-39-11 2-32 3.5t-42.5 1.5-33.5-2z"/><glyph unicode="ø" d="M-22 117q-26 96 10 210.5t115.5 211 183 141 213.5.5q22-10 39-22 19 23 36 44 41 48 66 56t32-6.5-6-33.5q-27-37-81-110h1q28-47 35-103 7-66-6.5-143.5T585 240q42 21 74 54 30 32 51 56 12 14 19 21 6-2 8-12t1-22-4-21q-11-13-20-26l-21-26q-1 0-1-1-3-3-5-6-39-41-74.5-61.5T545 162q-35-60-100.5-115.5T293-33 109-23h-1Q83-54 62-78q-25-27-45-25T-9-82.5 0-41q6 7 12 15Q27-6 43 15-6 55-22 117zm115 80q1-50 24-85 44 58 93 122-20 30-29 69-17 69 0 133-39-42-64-108.5T93 197zm88-128q25-6 53-3 57 7 105.5 35t66.5 56q-87-11-140 22-46-60-85-110zm77 310q-1-37 11-68 13 17 27 35 91 120 166 214-7 6-15 11-35 21-75 14.5T305 550q-21-24-28-50-19-59-19-121zm61-130q33-20 89-23h1q22 0 53-.5t47 2.5q-8-1-20.5 0t-21.5 5-6 13q1 2 2 5 0 1 1 1 26 60 32 128 4 61-2 105-81-110-175-236z"/><glyph unicode="ù" horiz-adv-x="850" d="M-48 128q10 131 55.5 263T121 635l12 20q36 18 73.5 19t63.5-7 26-18q0-2-2-4-2-5-5-11-30-47-69-132t-71-174-40.5-146.5T132 131q53 21 123 118.5T393 458q75 124 124 182 14 17 22 20 14 6 39.5 8t52.5.5 45.5-5T694 653q-18-33-60.5-123.5T550 336q-37-90-54.5-157t1.5-79q52-24 150 53 74 60 133.5 123t80.5 88q5 6 6 7 6-1 8.5-15.5T872 316q-42-55-96.5-116T651 88q-54-39-114-64.5T411-1q-34 2-49 26.5t-18 57-1 58.5q5 108 51 210 6 11 10 20-2-3-3-6-2-3-3.5-5.5T395 353q0-1-1-1v-1q-33-63-83.5-141T218 88q-40-41-88.5-68T23-7q-42 3-58.5 41T-48 128zm337 945q0 19 19.5 25.5t42 .5 31.5-25q11-43 21-103 10-58 22-111.5t29-81.5q-26 19-63.5 74t-68 118-33.5 103z"/><glyph unicode="ú" horiz-adv-x="850" d="M-48 128q10 131 55.5 263T121 635l12 20q36 18 73.5 19t63.5-7 26-18q0-2-2-4-2-5-5-11-30-47-69-132t-71-174-40.5-146.5T132 131q53 21 123 118.5T393 458q75 124 124 182 14 17 22 20 14 6 39.5 8t52.5.5 45.5-5T694 653q-18-33-60.5-123.5T550 336q-37-90-54.5-157t1.5-79q52-24 150 53 74 60 133.5 123t80.5 88q5 6 6 7 6-1 8.5-15.5T872 316q-42-55-96.5-116T651 88q-54-39-114-64.5T411-1q-34 2-49 26.5t-18 57-1 58.5q5 108 51 210 6 11 10 20-2-3-3-6-2-3-3.5-5.5T395 353q0-1-1-1v-1q-33-63-83.5-141T218 88q-40-41-88.5-68T23-7q-42 3-58.5 41T-48 128zm389 633q17 28 29 81.5T392 954q10 60 21 103 9 19 31.5 25t42-.5T506 1056q-3-40-33.5-103t-68-118-63.5-74z"/><glyph unicode="û" horiz-adv-x="850" d="M-48 128q10 131 55.5 263T121 635l12 20q36 18 73.5 19t63.5-7 26-18q0-2-2-4-2-5-5-11-30-47-69-132t-71-174-40.5-146.5T132 131q53 21 123 118.5T393 458q75 124 124 182 14 17 22 20 14 6 39.5 8t52.5.5 45.5-5T694 653q-18-33-60.5-123.5T550 336q-37-90-54.5-157t1.5-79q52-24 150 53 74 60 133.5 123t80.5 88q5 6 6 7 6-1 8.5-15.5T872 316q-42-55-96.5-116T651 88q-54-39-114-64.5T411-1q-34 2-49 26.5t-18 57-1 58.5q5 108 51 210 6 11 10 20-2-3-3-6-2-3-3.5-5.5T395 353q0-1-1-1v-1q-33-63-83.5-141T218 88q-40-41-88.5-68T23-7q-42 3-58.5 41T-48 128zm342 644q13 15 32 39 42 52 99 118t108 114q48 40 52-13 8-95 19-180 8-72 10-100-13 2-31.5 13.5t-33 25T534 810q-1 22-2.5 50.5T528 939q-23-19-68-68.5T378 775q-20-1-32-2-10-1-22-1h-30z"/><glyph unicode="ü" horiz-adv-x="850" d="M-48 128q10 131 55.5 263T121 635l12 20q36 18 73.5 19t63.5-7 26-18q0-2-2-4-2-5-5-11-30-47-69-132t-71-174-40.5-146.5T132 131q53 21 123 118.5T393 458q75 124 124 182 14 17 22 20 14 6 39.5 8t52.5.5 45.5-5T694 653q-18-33-60.5-123.5T550 336q-37-90-54.5-157t1.5-79q52-24 150 53 74 60 133.5 123t80.5 88q5 6 6 7 6-1 8.5-15.5T872 316q-42-55-96.5-116T651 88q-54-39-114-64.5T411-1q-34 2-49 26.5t-18 57-1 58.5q5 108 51 210 6 11 10 20-2-3-3-6-2-3-3.5-5.5T395 353q0-1-1-1v-1q-33-63-83.5-141T218 88q-40-41-88.5-68T23-7q-42 3-58.5 41T-48 128zm278.5 644.5q-.5 1.5 2.5 7.5 2 3 4 8 9 19 19 39.5t17 32.5q2 2 3 4 3 5 5 7.5t5 3.5 10 1h2q64 7 114-2 2-1 3-1 12-2 13.5-4.5T425 858q-1-3-3-7-4-9-10.5-21.5T399 805t-9-19l-5-10q-2-5-3.5-7t-4.5-2-8 1-8 1q-55 7-116 4-4 0-7-1-7-1-7.5.5zm218-2q-.5 1.5 2.5 7.5 2 3 4 8 9 19 19 39.5t17 32.5q2 2 3 4 3 5 5 7.5t5 3.5 10 1h2q64 7 114-2 2-1 3-1 12-2 13.5-4.5T643 856q-1-3-3-7-4-9-10.5-21.5T617 803t-9-19l-5-10q-2-5-3.5-7t-4.5-2-8 1-8 1q-55 7-116 4-4 0-7-1-7-1-7.5.5z"/><glyph unicode="ý" horiz-adv-x="835" d="M-100-303q20 86 110 149.5T219-41q7 3 20.5 8T266-22q6 3 12 5-12-2-25.5-5.5T230-29q72 170 143 340-34-60-76.5-123.5T219 88q-40-41-88.5-68T24-7q-42 3-58.5 41T-47 128q10 131 55.5 263T122 635q4 6 7 11t6 9q51 23 101 19t62-24l-2-4-6-12q-30-47-69-132t-71-173.5T109.5 182t23.5-51q55 22 123.5 119T392 457q47 78 86 135t62 69q12 5 34.5 6t47.5 0q29-1 50-5.5t24-11.5Q588 426 494 192q-14-36-29-71l-32-76q109 40 184 92 131 101 244 236 9-4 10-20t-5-35q-37-48-88-105.5T659 101q-68-52-134.5-88T413-43q-11-5-19-9-8-18-15-36l-54-136q-32-84-67-147.5T179-472q-27-21-60-30t-61-9q-92 0-133.5 59.5T-100-303zm137-40q8-24 30-25 23 2 46.5 41.5t41.5 87 23 73.5Q85-222 46-287q-17-32-9-56zM341 761q17 28 29 81.5T392 954q10 60 21 103 9 19 31.5 25t42-.5T506 1056q-3-40-33.5-103t-68-118-63.5-74z"/><glyph unicode="þ" horiz-adv-x="1118" d="M4-76Q0-45 81 136t199 419 224 441 151 278q19 27 63.5 29t78.5-16.5 20-53.5q-31-67-79.5-168T653 891q-3-8-7-16 89 94 195 98.5t178-52.5q88-76 93.5-198.5t-61-247-193-207T557 190q-47 1-105 30.5T354 313q-32-62-88-177-28-57-52.5-107.5T173-51q-51-92-97.5-91T4-76zm468 504.5Q486 349 600 334q129-8 215.5 63t124 171.5 19 181T858 840q-101 4-195-66T513.5 606 472 428.5z"/><glyph unicode="ÿ" horiz-adv-x="835" d="M-100-303q20 86 110 149.5T219-41q7 3 20.5 8T266-22q6 3 12 5-12-2-25.5-5.5T230-29q72 170 143 340-34-60-76.5-123.5T219 88q-40-41-88.5-68T24-7q-42 3-58.5 41T-47 128q10 131 55.5 263T122 635q4 6 7 11t6 9q51 23 101 19t62-24l-2-4-6-12q-30-47-69-132t-71-173.5T109.5 182t23.5-51q55 22 123.5 119T392 457q47 78 86 135t62 69q12 5 34.5 6t47.5 0q29-1 50-5.5t24-11.5Q588 426 494 192q-14-36-29-71l-32-76q109 40 184 92 131 101 244 236 9-4 10-20t-5-35q-37-48-88-105.5T659 101q-68-52-134.5-88T413-43q-11-5-19-9-8-18-15-36l-54-136q-32-84-67-147.5T179-472q-27-21-60-30t-61-9q-92 0-133.5 59.5T-100-303zm137-40q8-24 30-25 23 2 46.5 41.5t41.5 87 23 73.5Q85-222 46-287q-17-32-9-56zM230.5 772.5q-.5 1.5 2.5 7.5 2 3 4 8 9 19 19 39.5t17 32.5q2 2 3 4 3 5 5 7.5t5 3.5 10 1h2q64 7 114-2 2-1 3-1 12-2 13.5-4.5T425 858q-1-3-3-7-4-9-10.5-21.5T399 805t-9-19l-5-10q-2-5-3.5-7t-4.5-2-8 1-8 1q-55 7-116 4-4 0-7-1-7-1-7.5.5zm218-2q-.5 1.5 2.5 7.5 2 3 4 8 9 19 19 39.5t17 32.5q2 2 3 4 3 5 5 7.5t5 3.5 10 1h2q64 7 114-2 2-1 3-1 12-2 13.5-4.5T643 856q-1-3-3-7-4-9-10.5-21.5T617 803t-9-19l-5-10q-2-5-3.5-7t-4.5-2-8 1-8 1q-55 7-116 4-4 0-7-1-7-1-7.5.5z"/><glyph unicode="Œ" horiz-adv-x="1965" d="M12 199Q0 309 41.5 421.5T170 617q6-6 13-19.5t11-27.5-1-21Q85 410 84 279.5T190 94q113-47 236.5 7.5T661 271t188 252q116 209 148 361t10 244.5-67 125.5q-52 39-142 33t-192-65.5T417 1040q-62-92-86.5-186.5T329 687t103-98q-190-23-262 63.5T125.5 878t137 272T547 1354q131 52 254.5 60.5T1023 1355q120-92 149.5-246T1159 776q-7-26-14-51 12 5 25 10 118 46 234 36-104 79-116.5 188.5T1340 1168q78 112 179.5 160t207.5 47q154-2 228-73t48-197q-28-104-108.5-153T1733 919.5 1624 1030q41-13 102 5t108 61 45 104q-7 39-75.5 46.5T1652 1226t-133-95q-64-94-51-159t78.5-111 159.5-86q62-29 61.5-67.5t-40-63.5-94.5-14q-169 37-320.5-17T1070 456t-79-212q26-133 138.5-179T1384 37t255 76q192 103 345 257 3 0 5.5-4.5t2-16-6.5-30.5q-3-3-16-17-30-33-102-100.5T1686 61q-121-79-260-125.5T1147-95Q987-71 897 13q-66 60-93 137-48-44-100-82Q515-68 303-66 166-59 95 15T12 199z"/><glyph unicode="œ" d="M-22.5 117Q-48 213-12 327.5t115.5 211 183 141 213.5.5q58-26 87-72 14-24 23-49 56 66 129 106 7 3 13 7 89 44 186 29 55-9 99.5-39.5T1101 572q17-67-13-136t-96-113.5T835 285q-56 4-101 31-18 9-31 26-23 27-37 72 115-28 186.5-6.5T956 471q42 52 31.5 93T887 585q-59-17-115.5-63T681 416q-6 0-10.5 1t-11.5 5l1-4q1-4 3-9t3-10q1-1 1-2t.5-1.5 0-1-.5-1.5q-1-1-1-2-28-64-32-120-3-30 1-60 4-24 13-48 20-55 80-75 75-18 160.5 8.5T1025 165q109 96 174 169 20 22 35 37 7-1 8.5-16.5T1239 316q-94-132-238-246-77-60-175-88t-208 5q-34 13-60 32-41 31-61 78-23-26-52-50-66-56-152-80T109-23Q3 21-22.5 117zM93 196.5Q94 132 133 94q43-35 100.5-28t106 35 66.5 56q-99-13-154 31.5t-71.5 114T181 436q-39-42-64-108.5t-24-131zM257.5 379q-.5-62 33.5-105.5T408 226h1q22 0 53-.5t47 2.5q-8-1-20.5 0t-21.5 5-6 13q1 2 2 5 0 1 1 1 26 60 31.5 128T493 494q-11 56-46 77t-75 14.5-67-35.5q-21-24-28-50-19-59-19.5-121z"/><glyph unicode="Ÿ" horiz-adv-x="1311" d="M.5 809Q1 861 6 894q25 179 122 291.5T349.5 1351t230.5 55q72-1 117.5-21t55.5-36q12-23 2.5-64.5t-29-85T692 1126l-10-20Q575 871 547.5 705T558 474t127 1.5T899 772q58 111 105 206 71 146 131.5 245.5T1264 1360q27 13 83 18t107-2 62-29q6-21-1-52.5t-18-60-18-42.5q-41-87-104-219-74-157-150.5-315.5T1099 406q-5-11-25-46-24-44-54.5-99T970 168q-4-9-16-30.5T931 95q-7-13-11.5-21.5T914 63q115-8 198.5 46T1266 245q-70-136-173-202T872-15q-11-23-20-42-17-33-33.5-64T778-193q-69-117-171-197-72-53-138.5-64.5T346-445q-100 39-136.5 116T194-165q18 70 69 132T396 68q81 37 148 39.5t145-7.5q5-1 11-1 12-2 41.5-7T793 79q-4 2-10 4-19 6-34 17.5t-5 36.5q105 221 215 414 73 130 143 265 0 1-7.5-13t-20.5-39q-28-51-60.5-111.5T965 565Q839 349 695 280t-246 9-101 304 165 601q4 9 15 26 10 18 20.5 36.5t14 32-5.5 14.5q-55 0-141.5-50t-170-144T117 883t-17-296q-58 53-79 111.5T.5 809zm385-916q-17.5-51 1.5-93.5t59.5-54T534-224q57 54 90.5 106T691 12q-52 14-112.5 4T470-19q-67-37-84.5-88zm427 1536.5q-.5 1.5 2.5 7.5 2 3 4 8 9 19 19 39.5t17 32.5q2 2 3 4 3 5 5 7.5t5 3.5 10 1h2q64 7 114-2 2-1 3-1 12-2 13.5-4.5t-3.5-10.5q-1-3-3-7-4-9-10.5-21.5T981 1462t-9-19l-5-10q-2-5-3.5-7t-4.5-2-8 1-8 1q-55 7-116 4-4 0-7-1-7-1-7.5.5zm218-2q-.5 1.5 2.5 7.5 2 3 4 8 9 19 19 39.5t17 32.5q2 2 3 4 3 5 5 7.5t5 3.5 10 1h2q64 7 114-2 2-1 3-1 12-2 13.5-4.5t-3.5-10.5q-1-3-3-7-4-9-10.5-21.5T1199 1460t-9-19l-5-10q-2-5-3.5-7t-4.5-2-8 1-8 1q-55 7-116 4-4 0-7-1-7-1-7.5.5z"/><glyph unicode="ˆ" horiz-adv-x="425" d="M105 1055q13 15 32 39 42 52 99 118t108 114q48 40 52-13 8-95 19-180 8-72 10-100-13 2-31.5 13.5t-33 25T345 1093q-1 22-2.5 50.5T339 1222q-23-19-68-68.5t-82-95.5q-20-1-32-2-10-1-22-1h-30z"/><glyph unicode="˜" horiz-adv-x="692" d="M81 1150q-1 65 31 103t78 55.5 88 19.5q46 2 78-15t60-40q26-21 54.5-37.5T538 1219q33 0 61.5 17t62.5 45q16 13 35 28-1-92-52.5-135T530 1124q-54-6-89.5 11t-65.5 42q-41 36-100 53-51 8-99-17t-95-63z"/><glyph horiz-adv-x="884"/><glyph horiz-adv-x="1769"/><glyph horiz-adv-x="884"/><glyph horiz-adv-x="1769"/><glyph horiz-adv-x="589"/><glyph horiz-adv-x="442"/><glyph horiz-adv-x="294"/><glyph horiz-adv-x="294"/><glyph horiz-adv-x="221"/><glyph horiz-adv-x="353"/><glyph horiz-adv-x="98"/><glyph unicode="‐" horiz-adv-x="578" d="M0 321.5q0 12.5 8 29T25.5 380 40 395q47 11 139 16.5t180 5.5 122-4q20-4 19-16t-15.5-29-33.5-36l-4-4q-261 5-432-20-15 1-15 13.5z"/><glyph unicode="‑" horiz-adv-x="578" d="M0 321.5q0 12.5 8 29T25.5 380 40 395q47 11 139 16.5t180 5.5 122-4q20-4 19-16t-15.5-29-33.5-36l-4-4q-261 5-432-20-15 1-15 13.5z"/><glyph unicode="‒" horiz-adv-x="578" d="M0 321.5q0 12.5 8 29T25.5 380 40 395q47 11 139 16.5t180 5.5 122-4q20-4 19-16t-15.5-29-33.5-36l-4-4q-261 5-432-20-15 1-15 13.5z"/><glyph unicode="–" horiz-adv-x="712" d="M0 321.5q0 12.5 9 29T29 380t18 15q53 11 159 16.5t207 5.5 140-4q23-4 21.5-16t-18-29-37.5-36q-2-2-5-4-300 5-497-20-17 1-17 13.5z"/><glyph unicode="—" horiz-adv-x="907" d="M.5 321.5Q0 334 12 350.5T39 380t24 15q73 11 217 16.5t281 5.5 191-4q32-4 30-16t-24.5-29-52.5-36q-3-2-5-4-409 5-677-20-22 1-22.5 13.5z"/><glyph unicode="‘" horiz-adv-x="412" d="M322 1035q-9 39 .5 99.5t28.5 114 38 70.5q-8-27-3-78t14-107q9-59 12-100-2-19-22-24.5t-41 1-27 24.5z"/><glyph unicode="’" horiz-adv-x="412" d="M318 1292q2 19 22 24.5t41-1 27-24.5q9-39-.5-99.5t-28.5-114-38-70.5q8 27 3 78.5T330 1193q-9 58-12 99z"/><glyph unicode="‚" horiz-adv-x="390" d="M25 87q2 19 22 24.5t41-1T115 86q9-39-.5-99.5T86-127.5 48-198q8 27 3 78.5T37-12q-9 58-12 99z"/><glyph unicode="“" horiz-adv-x="537" d="M313 1035q-9 39 .5 99.5t28.5 114 38 70.5q-8-27-3-78t14-107q9-59 12-100-2-19-22-24.5t-41 1-27 24.5zm134 0q-9 39 .5 99.5t28.5 114 38 70.5q-8-27-3-78t14-107q9-59 12-100-2-19-22-24.5t-41 1-27 24.5z"/><glyph unicode="”" horiz-adv-x="537" d="M309 1292q2 19 22 24.5t41-1 27-24.5q9-39-.5-99.5t-28.5-114-38-70.5q8 27 3 78.5T321 1193q-9 58-12 99zm134 0q2 19 22 24.5t41-1 27-24.5q9-39-.5-99.5t-28.5-114-38-70.5q8 27 3 78.5T455 1193q-9 58-12 99z"/><glyph unicode="„" horiz-adv-x="568" d="M25 87q2 19 22 24.5t41-1T115 86q9-39-.5-99.5T86-127.5 48-198q8 27 3 78.5T37-12q-9 58-12 99zm134 0q2 19 22 24.5t41-1T249 86q9-39-.5-99.5t-28.5-114-38-70.5q8 27 3 78.5T171-12q-9 58-12 99z"/><glyph unicode="•" horiz-adv-x="180" d="M-3 390q0 36 27 62t65 26 64.5-26 26.5-62q0-37-26.5-62.5T89 302t-65 25.5T-3 390z"/><glyph unicode="…" horiz-adv-x="822" d="M0-4q4 17 7.5 28T19 55q3 7 7 17 13 5 37.5 6t47-1 30.5-7q-8-22-14-38-8-17-15-39-11 2-33 3.5T34.5-2 0-4zm247 0q4 17 7.5 28T266 55q3 7 7 17 13 5 37.5 6t47-1 30.5-7q-8-22-14-38-8-17-15-39-11 2-33 3.5T281.5-2 247-4zm259 0q4 17 7.5 28T525 55q3 7 7 17 13 5 37.5 6t47-1 30.5-7q-8-22-14-38-8-17-15-39-11 2-33 3.5T540.5-2 506-4z"/><glyph horiz-adv-x="353"/><glyph unicode="‹" horiz-adv-x="655" d="M10 381q12 37 93.5 103.5t186 137.5T476 743.5t95 54.5q19 3 29.5-7.5T617 763q10-31-9-50.5T560 678q-15-8-29-18-42-29-103-68-133-84-272-191 76-51 157-130t130-133q17-18 26-27 17-20 6-44.5T439.5 32 389 45q-60 88-140 151T103 301q-43 28-68.5 48T10 381z"/><glyph unicode="›" horiz-adv-x="655" d="M14 64q-10 32 9 51t48 34q15 8 29 18 42 29 103 68 132 84 272 191-76 51-157 130.5T188 689q-17 18-26 27-17 20-6.5 44.5T191 795t51-13q60-88 139.5-151T528 526q43-28 68.5-48t23.5-32q-12-37-93-103.5T341.5 205 155 83.5 59 29q-18-2-28.5 8T14 64z"/><glyph horiz-adv-x="442"/><glyph unicode="€" horiz-adv-x="961" d="M29 580q37 16 159 24 12 29 25 56-82 1-122.5 8T79 692q37 16 161 24 79 163 176 286t245 164q99 24 179-3 57-18 89-63t27-117q-43 51-149 64-176 15-314-195-36-58-72-126 79 0 132-1.5t62-4.5q72-37-27-47-27-1-69-3-56-2-128-5-13-26-25-52 80 1 135-.5t64-4.5q72-37-27-47-27-1-68-3-57-2-130-5-68-155-81.5-283.5T319 77q46-32 120.5-11.5t149 65.5T709 218l11 11q26 25 29.5 24.5T726 212Q640 80 514 4.5T271-54Q146-28 111 71T97.5 297.5 163 539q1 5 3 9-83 1-124.5 8T29 580z"/><glyph unicode="™" horiz-adv-x="1221" d="M2 748q34 89 58 146 16 41 34 87 33 85 70 179 34 84 64 162 4 8 15 11t20 4h3q-11 2-26 2-10 0-18 1-25 2-66 1.5t-83-8.5-70-29q20 60 70 84t109 27 106 0q4 0 8-1 41-2 83-6 70-7 127-6 26 2 49.5 4t37.5 4l11 1q-29-45-57-63.5t-68-16.5q-30 1-51 2-27 2-48 2.5t-46-1.5q-34-85-81-200-49-120-97.5-243T77 673q-3-8-15.5-1.5t-26.5 21T11 723t-9 25zm365.5 37.5Q370 822 380 845q53 120 105 257 51 133 105 260 8 28 29 49.5t55 3.5q16-10 14.5-32t-7.5-37q-44-112-91.5-230.5T522 946q-4-7-5-12-2-4-2-5 0 1 2 5 11 27 56.5 115t109 185.5T812 1387q31 25 65.5 29t53-22 .5-92q-39-113-82-220-35-86-68-179 4 11 9 23 21 57 55 135t83.5 158 115.5 144q16 15 33 28 32 25 67 28t53.5-24 .5-93q-10-31-21-61v-2q-25-67-57-148-38-99-65-174-14-44-28-93t-16-73q0-25 15-25t35 13.5 35 26.5q70 64 109 120 1 0 3-2.5t2-9-2-16.5q-38-54-67-85t-55-49q-22-17-47.5-31T986 675q-31-2-49 26t-16 70q4 60 25.5 136.5t46.5 145 40 103.5q3 10 6 15 17 42 35 77 8 17 12.5 27t1.5 9q-27-10-64.5-65.5t-77-133.5-75-154.5T813 801q-11-26-18-41l-4-8q-15-37-36-71.5T710 644q-30 1-51.5 32T640 752q4 57 31 145t59 172.5 50 129.5q6 17 9 24 15 39 19 52.5t-2 10.5q-22-11-64.5-78.5t-90.5-158-86.5-171T511 760q-14-39-38.5-63T420 678q-32 8-43.5 39.5t-9 68z"/><glyph unicode="◼" horiz-adv-x="705" d="M0 0v705h705V0H0z"/></font>
</defs>
</svg>
