<svg xmlns="http://www.w3.org/2000/svg"><defs><font id="latoregular" horiz-adv-x="1187"><font-face units-per-em="2048" ascent="1649" descent="-399"/><glyph unicode="ﬁ" horiz-adv-x="1167" d="M27 942v75h163v57q0 95 30 174.5t89.5 137 148 89T664 1506q39 0 79-5t70-15l-6-95q-2-13-12.5-17t-29.5-4q-11 0-23.5.5t-27.5.5q-181 0-263.5-75T368 1069v-52h626V0H812v885H374V0H190v882L76 895q-22 5-35.5 16T27 942z"/><glyph unicode="ﬂ" horiz-adv-x="1216" d="M27 942v75h163v55q0 86 27 163.5t80 134.5 133 91 186 34q85 0 163.5-6.5T932 1482h102V0H852v1354q-55 2-111 5t-97 3q-133 0-204.5-76.5T368 1072v-55h270V885H374V0H190v882L76 895q-22 5-35.5 16T27 942z"/><glyph horiz-adv-x="0"/><glyph horiz-adv-x="0"/><glyph horiz-adv-x="0"/><glyph horiz-adv-x="0"/><glyph horiz-adv-x="395"/><glyph horiz-adv-x="395"/><glyph horiz-adv-x="395"/><glyph unicode="!" horiz-adv-x="702" d="M223 113q0 27 10 50t26.5 40.5 40.5 28 50 10.5q27 0 50.5-10.5t41-28 27-41T478 113q0-28-9.5-51t-27-40.5-41-27T350-15t-50.5 9.5-40 27T233 62t-10 51zm44 769v585h173V882q0-46-1.5-90t-4.5-89-7.5-91.5T416 512H292q-6 53-11 99.5t-8 91.5-4.5 89-1.5 90z"/><glyph unicode="&quot;" horiz-adv-x="813" d="M156 1170v297h158v-297l-16-158q-3-33-17.5-51T234 943q-27 0-41.5 18t-20.5 51zm341 0v297h158v-297l-16-158q-3-33-17.5-51T575 943q-27 0-41.5 18t-20.5 51z"/><glyph unicode="#" d="M55 485q0 5 .5 11.5T57 509l9 58h208l67 334H103l14 76q5 30 23.5 44t58.5 14h161l74 367q6 31 28 48t53 17h82l-86-432h253l86 432h81q26 0 42.5-15t16.5-40q0-8-1-13l-75-364h218l-14-77q-5-30-24-43.5t-58-13.5H895l-67-334h184q25 0 38-11.5t13-41.5q0-5-.5-10.5T1061 492l-9-59H809L723 0h-83q-24 0-40 17.5T584 62q0 4 .5 8t1.5 9l72 354H406L333 70q-8-38-31-54T249 0h-81l87 433H105q-24 0-37 12t-13 40zm370 82h253l66 334H492z"/><glyph unicode="$" d="M109 175l54 84q7 11 20.5 18.5T211 285q19 0 44-19.5t60.5-44.5 85.5-49 119-32l38 544q-72 22-141 49t-123.5 70.5-88 109.5-33.5 165q0 75 29 146t85 126.5 138 91 188 39.5l11 147q2 19 15 34.5t36 15.5h67l-14-202q108-13 185.5-55.5T1052 1319l-44-68q-20-31-47-30-14 0-35.5 12.5t-51 29.5-68.5 34-89 24l-34-496q74-23 145.5-49t129-68 92.5-105 35-158q0-92-30.5-173T965 130 820.5 30.5 626-14l-13-181q-2-19-15.5-34T562-244h-67l15 232Q386-1 284 48.5T109 175zm235 922q0-49 17.5-85.5t48-64 71.5-48 89-37.5l31 462q-67-6-115.5-26.5T406 1246t-46.5-69-15.5-80zm292-957q67 6 118.5 29.5t87 59 53 83.5T912 417q0 51-19 88t-51.5 63.5-76.5 46-94 35.5z"/><glyph unicode="%" horiz-adv-x="1609" d="M74 1113q0 88 24.5 156.5t68.5 116 103 72 128 24.5 129-24.5 103.5-72 68.5-116 25-156.5q0-86-26.5-154t-71-114.5-104-71T398 749q-70 0-128.5 24.5t-102.5 71T98.5 959 74 1113zM170 0l1067 1431q13 17 28 26.5t40 9.5h131L364 30q-10-13-24.5-21.5T305 0H170zm47 1113q0-67 14-113.5t38.5-75.5 57.5-42 71-13 71.5 13 58.5 42 39.5 75.5T582 1113q0 68-14.5 115t-39.5 77-58.5 43.5T398 1362t-71-13.5-57.5-43.5-38.5-77-14-115zm669-767q0 88 24.5 157T979 619.5t103 72 128 24.5 128.5-24.5 103.5-72 68.5-116.5 24.5-157q0-86-26.5-153.5t-71-114-103.5-71T1210-17q-70 0-128.5 24.5T979 78.5t-68.5 114T886 346zm143 0q0-67 14-113t38.5-75 57.5-42 71-13 71.5 13 58.5 42 39.5 75 14.5 113q0 68-14.5 115.5t-39.5 77-58.5 43T1210 595t-71-13.5-57.5-43-38.5-77-14-115.5z"/><glyph unicode="&amp;" horiz-adv-x="1439" d="M84 391q0 72 24 136t66.5 118 101 97T403 816q-62 79-91.5 153.5T282 1124q0 75 27 140.5t78 114 124.5 77T676 1484q81 0 147.5-26t115-69 76.5-100 33-119l-114-22q-5-1-9-1-13 0-25 7t-17 26q-7 27-23 55.5t-41 52-60.5 38.5-82.5 15q-51 0-92-16t-70.5-45.5-45-69T453 1125q0-36 8.5-68.5t26-66 45-68.5 66.5-74l422-429q39 69 62 144t31 151q2 19 12.5 30.5T1155 756h113q-2-118-38-231.5T1126 311L1434 0h-177q-30 0-48 7t-41 30l-147 148Q925 92 799.5 38T523-16q-82 0-160.5 27.5T222 91.5 122 220 84 391zm185 15q0-67 24.5-117.5T358 203t91.5-53T554 132q115 0 206 42t161 112L487 723q-109-58-163.5-139.5T269 406z"/><glyph unicode="'" horiz-adv-x="471" d="M156 1170v297h158v-297l-16-158q-3-33-17.5-51T234 943q-27 0-41.5 18t-20.5 51z"/><glyph unicode="(" horiz-adv-x="614" d="M137 644q0 124 15.5 243t48.5 235 87 231.5T419 1588l81-50q11-7 18-16.5t7-23.5q0-15-10-35-108-186-163.5-393T296 644t56.5-425.5T515-175q6-11 8-19.5t2-16.5q0-14-7-23.5T500-251l-81-49Q342-182 288-66.5T201 166t-48.5 235T137 644z"/><glyph unicode=")" horiz-adv-x="614" d="M76-211q0 8 2 16.5t8 19.5Q192 12 248.5 218.5T305 644t-55.5 426T86 1463q-10 19-10 35 0 14 7 23.5t18 16.5l81 50q77-119 131-234.5t87-231.5 48.5-235T464 644q0-125-15.5-243T400 166 313-66.5 182-300l-81 49q-11 7-18 16.5T76-211z"/><glyph unicode="*" horiz-adv-x="819" d="M98 1341l45 77 178-102q36-20 58-53-9 18-13 37t-4 39v203h91v-202q0-42-15-73 11 15 25 26.5t32 22.5l176 101 45-77-176-102q-17-11-34.5-17.5T470 1212q18-2 35-7.5t35-16.5l177-104-45-76-177 102q-18 11-33 22.5t-26 27.5q16-34 17-74V884h-91v201q0 19 3 37t10 34q-20-26-54-46l-177-101-45 76 176 103q37 22 75 24-20 2-38 8t-37 18z"/><glyph unicode="+" d="M102 618v139h415v437h150V757h416V618H667V178H517v440H102z"/><glyph unicode="," horiz-adv-x="434" d="M96 126q0 24 9 44.5t24.5 36.5 38 25.5T217 242q31 0 55-11.5t40-31.5 24-46 8-57q0-46-13.5-95.5t-38-98-60.5-95-82-85.5l-31 30q-13 12-14 29 0 13 15 28 10 11 26 30t32.5 43.5 30 54T228 0h-13q-27 0-48.5 9t-37 26T105 75t-9 51z"/><glyph unicode="-" horiz-adv-x="710" d="M102 537v154h506V537H102z"/><glyph unicode="." horiz-adv-x="434" d="M90 113q0 27 10 50t26.5 40.5 40 28T217 242t50.5-10.5 41-28 27-41T345 113q0-28-9.5-51t-27-40.5-41-27T217-15t-50.5 9.5-40 27T100 62t-10 51z"/><glyph unicode="/" horiz-adv-x="763" d="M-12-92l615 1533q13 33 38 50t58 17h77L165-22q-14-36-42.5-53T65-92h-77z"/><glyph unicode="0" d="M61 733q0 193 41 334t113 234 168.5 138 209.5 45q112 0 209.5-45t169-138 113-234 41.5-334-41.5-333.5-113-232.5-169-137T593-15q-113 0-209.5 45T215 167 102 400 61 733zm189 0q0-168 28-281.5t75-183 109.5-100T593 138t130 30.5 110 100 76 183T937 733t-28 282-76 184-110.5 100-129.5 30q-68 0-130.5-30T353 1199t-75-184-28-282z"/><glyph unicode="1" d="M207 1093l436 377h149V139h288V0H294v139h315v1001q0 45 3 91l-262-224q-10-8-20.5-12t-19.5-4q-15 0-27.5 7t-18.5 16z"/><glyph unicode="2" d="M106 0v62q0 19 8 40t25 38l470 472q58 59 106.5 114t83 110.5T851 949t18 121q0 65-20.5 113.5t-56 80-84 47.5-103.5 16-102-16.5-83.5-45.5-61.5-69-35-88q-8-30-24.5-43t-43.5-13q-5 0-10.5.5T231 1054l-95 16q14 100 55 177.5t104 130 144.5 79.5 175.5 27q93 0 174-28t140-80.5 93-128.5 34-172q0-82-24.5-151.5T965 790t-97-124-116-122L366 148q41 11 82.5 18t80.5 7h492q30 0 47-17.5t17-44.5V0H106z"/><glyph unicode="3" d="M111 367l77 32q22 9 43 10 20 0 36.5-9t24.5-27q2-4 4-9l4-10q14-30 34.5-67t55.5-70 86.5-55.5T605 139t135 25 96 65 57.5 89.5T913 416q0 59-15.5 108t-57 85-115 56.5T538 686v132q93 1 159 20.5T805 892t61 81 19 104q0 63-20 110.5t-55 78-82.5 46T625 1327t-102.5-16.5-84-45.5-61-69.5T341 1108q-8-30-24.5-43t-42.5-13q-5 0-10.5.5T251 1054l-95 16q14 100 55 177.5t104 130 144.5 79.5 175.5 27q93 0 172-26.5t135.5-76 88.5-119 32-154.5q0-70-18-124.5t-51-96-80.5-70.5T808 771q143-38 215.5-127t72.5-223q0-101-38.5-182t-105-138-155-87T607-16q-117 0-199.5 29t-140 80T173 214.5 111 367z"/><glyph unicode="4" d="M41 520l714 947h170V529h222V425q0-16-10-27.5t-30-11.5H925V0H764v386H114q-20 0-35.5 12T59 427zm198 9h525v606q0 27 1.5 57.5t6.5 62.5z"/><glyph unicode="5" d="M111 138l55 78q18 27 49 27 19 0 45.5-16t63-35.5T410 156t118-16q77 0 138.5 24.5t105 70.5 67 109.5T862 486q0 69-20 124.5t-60.5 94-100.5 60T540 786q-55 0-114.5-9T302 748l-115 33 119 686h695v-79q0-39-24.5-64.5T894 1298H433l-67-385q115 25 212 25 115 0 202-34t146.5-93 90-140 30.5-176q0-117-41-211.5T893.5 122 726 19.5 518-16q-65 0-124 12.5t-110.5 34T188 80t-77 58z"/><glyph unicode="6" d="M111 484q0 96 43 205t136 234l372 500q14 18 39.5 31t58.5 13h162L413 823q52 36 115.5 56T666 899q88 0 166.5-29t138-85 94.5-137.5 35-185.5q0-101-37-188.5t-103-152-159-101T596-16q-111 0-200.5 35t-153 100T145 277t-34 207zm176-31q0-71 20.5-129.5t60-100.5 96-65T593 135q74 0 133 23.5T827.5 224t65.5 99.5T916 449q0 72-22.5 129.5t-63 98-98 62T606 760q-74 0-133-25t-100.5-67.5T309 569t-22-116z"/><glyph unicode="7" d="M113 1343v124h997v-82q0-35-7.5-57t-16.5-38L479 65q-13-27-36.5-46T379 0H249l616 1210q13 26 27 47.5t32 40.5H158q-17 0-31 14t-14 31z"/><glyph unicode="8" d="M98 401q0 141 74 233t211 131q-116 43-174.5 128.5T150 1098q0 81 31.5 151.5t90 122.5 140 82 181.5 30q99 0 181-30t140.5-82 90-122.5T1036 1098q0-119-59-204.5T803 765q137-39 210.5-130.5T1087 401q0-96-36-173T950 96.5 794 13 593-16 392 13 235.5 96.5 134 228 98 401zm189 3q0-61 21-111.5t60.5-87 96-56.5T593 129t128.5 20 96 56.5 60.5 87T899 404q0 76-25 130t-67.5 87.5-98 49.5T593 687t-115.5-16-98-49.5T312 534t-25-130zm41 691q0-50 14-97.5t46-83.5 82.5-58T593 834t122.5 22 82 58 46 83 14.5 98-17 96-50 79-83 53-115 19q-66 0-115.5-19t-83-53-50-79-16.5-96z"/><glyph unicode="9" d="M152 1023q0 96 35.5 180t100 146.5T441 1448t196 36q105 0 191-35t147.5-97.5 95-149.5 33.5-192q0-63-12-120t-34.5-111.5T1004 670t-71-111L575 43q-13-19-37.5-31T481 0H313l447 585q23 30 42 56.5t37 52.5q-56-45-127-68.5T562 602q-83 0-157 27.5T274.5 711 185 843.5 152 1023zm182 13q0-70 20-124.5t57.5-92.5 91-57.5T623 742q74 0 130.5 24.5t95.5 64 59.5 92T929 1031q0 69-22 124.5t-61 94.5-93 60-118 21q-68 0-123.5-22t-95-61-61-93-21.5-119z"/><glyph unicode=":" horiz-adv-x="516" d="M131 113q0 27 10 50t26.5 40.5 40 28T258 242t50.5-10.5 41-28 27-41T386 113q0-28-9.5-51t-27-40.5-41-27T258-15t-50.5 9.5-40 27T141 62t-10 51zm0 768q0 27 10 50t26.5 40.5 40 28T258 1010t50.5-10.5 41-28 27-41T386 881q0-28-9.5-51t-27-40.5-41-27T258 753t-50.5 9.5-40 27T141 830t-10 51z"/><glyph unicode=";" horiz-adv-x="516" d="M131 881q0 27 10 50t26.5 40.5 40 28T258 1010t50.5-10.5 41-28 27-41T386 881q0-28-9.5-51t-27-40.5-41-27T258 753t-50.5 9.5-40 27T141 830t-10 51zm6-755q0 24 9 44.5t24.5 36.5 38 25.5T258 242q31 0 55-11.5t40-31.5 24-46 8-57q0-46-13.5-95.5t-38-98-60.5-95-83-85.5l-30 30q-13 12-14 29 0 13 15 28 10 11 26 30t32.5 43.5 30 54T269 0h-13q-27 0-48.5 9t-37 26T146 75t-9 51z"/><glyph unicode="&lt;" d="M152 651v76l792 411v-130q0-17-8-30t-29-24L447 721q-20-11-43-19t-49-14q26-5 49-13t43-19l460-232q20-10 28.5-23.5T944 371V240z"/><glyph unicode="=" d="M154 450v138h879V450H154zm0 343v138h879V793H154z"/><glyph unicode="&gt;" d="M244 240v131q0 16 8 29.5t29 23.5l459 232q20 10 42.5 18.5T830 688q-26 6-47.5 14T740 721L281 954q-20 10-28.5 23t-8.5 31v130l791-411v-76z"/><glyph unicode="?" horiz-adv-x="815" d="M35 1336q32 30 70 56.5t83.5 47T287 1472t114 12q81 0 150.5-23.5T671 1394t78.5-104.5T778 1151q0-78-23-134t-58-98.5-77-74-78.5-59T479 730t-30-61l-19-157H305l-12 170v11q0 43 23 76.5t58.5 62.5 75.5 58.5 75.5 64.5 58.5 80 23 107q0 44-17.5 79.5t-47 61-70 38.5-86.5 13q-62 0-107-15t-75.5-33.5-49.5-34-31-15.5q-26 0-40 24zM236 113q0 27 9.5 50t26.5 40.5 40.5 28T362 242q27 0 50.5-10.5t41-28 27-41T490 113q0-28-9.5-51t-27-40.5-41-27T362-15t-50 9.5-40 27T245.5 62t-9.5 51z"/><glyph unicode="@" horiz-adv-x="1683" d="M88 582q0 112 28 215t79.5 192.5 123 164 159.5 127 189.5 82T880 1392q94 0 184-20.5t170.5-60.5 148-99 116-135.5 76-170T1602 703q0-111-31.5-204t-86-162-129-108-160.5-39q-80 0-130 38.5T1001 347q-59-83-128.5-118.5T723 193q-61 0-106.5 20.5t-75.5 58-45 89T481 471q0 87 33.5 175.5t99 160 163 116.5 225.5 45q69 0 121-11t98-31l-96-370q-19-77-19-127 0-37 9-61t25-38 37-19 45-5q50 0 95 29t79.5 81 54 125 19.5 162q0 141-45.5 248T1300 1129t-187 106.5-233 35.5q-137 0-257-52.5T414 1074 273.5 856 222 582q0-174 55-306T426.5 55t222-134T923-124q156 0 275 34t206 86q15 9 28 9 22 0 31-24l26-68q-110-74-249.5-116T923-245t-330 56.5T328-26 152 233.5 88 582zm537-106q0-74 33.5-118.5T759 313q32 0 64 10.5t62 36 55.5 69.5T983 540l78 302q-40 9-87 9-77 0-141-32.5T723 734t-72-119.5T625 476z"/><glyph unicode="A" horiz-adv-x="1392" d="M10 0l587 1467h202L1385 0h-153q-27 0-43.5 13.5T1164 47l-137 354H369L231 47q-7-18-24.5-32.5T164 0H10zm414 545h548l-231 597q-23 55-44 138-11-42-21.5-77.5T654 1141z"/><glyph unicode="B" horiz-adv-x="1325" d="M178 0v1467h468q135 0 233-26.5t161-75.5 93-120 30-161q0-54-17-104t-51-93-86-77-121-55q161-32 242.5-116t81.5-221q0-93-34-170t-100-132.5T916 30 697 0H178zm199 158h317q85 0 146 19.5T940.5 232t58 84 18.5 107q0 114-80.5 180T693 669H377V158zm0 652h262q84 0 145.5 18.5t102 51 60 79.5 19.5 102q0 129-78 189.5T646 1311H377V810z"/><glyph unicode="C" horiz-adv-x="1402" d="M92 733q0 166 54 304.5T297 1275t233 154 299 55q162 0 279.5-50.5T1317 1297l-65-91q-7-10-16-16.5t-27-6.5q-13 0-28 9.5t-35.5 24-48 31-65.5 30.5-88 24-116 10q-118 0-215.5-40.5t-168-115.5-110-182.5T295 733q0-137 39.5-244.5t107.5-182 161-113T804 155q66 0 118 7.5t96.5 24 83 41.5 77.5 60q17 15 33 15t30-13l78-85q-90-104-218.5-162.5T792-16q-159 0-288 54.5T284 192 142.5 429 92 733z"/><glyph unicode="D" horiz-adv-x="1542" d="M178 0v1467h549q162 0 295-52.5t228.5-149.5 147.5-232 52-300-52-300-147.5-231.5-228.5-149T727 0H178zm200 161h349q118 0 214 39t163.5 112T1209 491.5t37 241.5-37 241.5-104.5 180.5T941 1268t-214 39H378V161z"/><glyph unicode="E" horiz-adv-x="1189" d="M178 0v1467h904v-161H378V818h570V663H378V162h704V0H178z"/><glyph unicode="F" horiz-adv-x="1159" d="M178 0v1467h904v-161H378V793h602V631H378V0H178z"/><glyph unicode="G" horiz-adv-x="1503" d="M92 733q0 168 53 306.5t150.5 237 236.5 153 311 54.5q87 0 161.5-13t138.5-37 118.5-58.5T1363 1298l-56-90q-17-28-45-27-16 0-36 11-26 14-57.5 34.5t-77 39.5-107.5 32.5-147 13.5q-124 0-224.5-40.5t-171-116T333 973t-38-240q0-139 39.5-248t111-185 170-116T833 144q59 0 108.5 6t93.5 17 83 27 78 36v324H969q-19 0-31 11.5T926 593v113h450V142q-55-40-115-69.5T1133 23 987-6.5 818-16q-160 0-293 54.5T296 192 146 429 92 733z"/><glyph unicode="H" horiz-adv-x="1548" d="M178 0v1467h200V813h790v654h200V0h-200v668H378V0H178z"/><glyph unicode="I" horiz-adv-x="628" d="M215 0v1467h199V0H215z"/><glyph unicode="J" horiz-adv-x="909" d="M61 12q2 30 5.5 59t6.5 58q2 17 12.5 28t32.5 11q18 0 49-9t82-9q68 0 120.5 20t89 63 55 110.5T532 503v964h198V507q0-123-30-220.5T611 122 466 19.5 268-16q-99 0-207 28z"/><glyph unicode="K" horiz-adv-x="1394" d="M199 0v1467h197V824h75q39 0 62 10t44 33l488 553q23 26 43.5 36.5t53.5 10.5h169L772 836q-22-24-40.5-40.5T691 769q29-9 50.5-27.5T786 695L1370 0h-172q-19 0-32.5 3t-23 8-18 13.5T1108 42L601 625q-11 12-21 20.5t-22.5 15-29.5 9-42 2.5h-90V0H199z"/><glyph unicode="L" horiz-adv-x="1052" d="M178 0v1467h199V167h635V0H178z"/><glyph unicode="M" horiz-adv-x="1884" d="M178 0v1467h147q27 0 41-5t27-28l507-904q14-25 25-51.5t21-54.5q10 29 21.5 55t25.5 52l497 903q13 24 27.5 28.5t41.5 4.5h146V0h-174v1078q0 22 1 46.5t3 50.5l-503-918q-26-46-71-46h-29q-46 0-72 46l-514 921q3-27 4.5-52.5t1.5-47.5V0H178z"/><glyph unicode="N" horiz-adv-x="1548" d="M178 0v1467h103q27 0 39.5-6.5T349 1434l850-1106q-3 27-4 51.5t-1 48.5v1039h174V0h-100q-24 0-40 8t-31 28L348 1141q2-26 3-50.5t1-44.5V0H178z"/><glyph unicode="O" horiz-adv-x="1634" d="M94 733q0 165 52.5 303T294 1273.5t228 155 295 55.5 295.5-55.5 229-155T1489 1036t52-303-52-302.5-147.5-237-229-154T817-15 522 39.5t-228 154-147.5 237T94 733zm203 0q0-135 37-242t105-181 164-113.5T817 157q119 0 215 39.5T1196 310t104.5 181 36.5 242-36.5 242.5-104.5 182-164 114.5-215 40q-118 0-214-40t-164-114.5-105-182T297 733z"/><glyph unicode="P" horiz-adv-x="1251" d="M199 0v1467h433q139 0 242-32t170.5-91.5 101-143.5 33.5-187q0-102-36-187.5t-105-147T866.5 583 632 549H396V0H199zm197 707h236q85 0 150 22.5t109 63 66.5 96.5 22.5 124q0 140-86.5 219T632 1311H396V707z"/><glyph unicode="Q" horiz-adv-x="1634" d="M94 733q0 165 52.5 303T294 1273.5t228 155 295 55.5 295.5-55.5 229-155T1489 1036t52-303q0-103-21-196.5T1459 363t-97-145.5T1233 103l377-406h-164q-37 0-65.5 10t-52.5 36L1070 24Q1012 6 949-4.5T817-15q-162 0-295 54.5t-228 154-147.5 237T94 733zm203 0q0-135 37-242t105-181 164-113.5T817 157q119 0 215 39.5T1196 310t104.5 181 36.5 242-36.5 242.5-104.5 182-164 114.5-215 40q-118 0-214-40t-164-114.5-105-182T297 733z"/><glyph unicode="R" horiz-adv-x="1318" d="M199 0v1467h414q139 0 240.5-28t167.5-81 98-128.5 32-168.5q0-78-24.5-145.5t-71-121.5-114-91.5T790 645q37-22 65-62L1283 0h-176q-54 0-80 42L646 566q-17 25-37.5 35.5T547 612H396V0H199zm197 757h208q87 0 153 21t110.5 59.5 67 91.5 22.5 118q0 131-86.5 197.5T613 1311H396V757z"/><glyph unicode="S" horiz-adv-x="1085" d="M59 175l58 94q8 11 19.5 19t26.5 8q22 0 49.5-23t69-50.5 100-51T525 148q71 0 126.5 19.5t93.5 55 58.5 84.5T824 417q0 67-30 109t-79 71-112 49-129 41-129 48.5T232.5 807 153 917t-30 163q0 78 30 151t87.5 129 142 90 194.5 34q123 0 224-39t177-113l-48-94q-9-15-19.5-23t-26.5-8q-17 0-40.5 17.5T785 1263t-85 38.5-120 17.5q-67 0-118-18t-85.5-48.5-52-72T307 1091q0-61 30.5-102t80-69.5T530 870t129-43.5T788 776t112.5-71 80-105.5T1011 445q0-96-33-180.5t-96-147-154.5-98T519-16q-142 0-259.5 51.5T59 175z"/><glyph unicode="T" horiz-adv-x="1208" d="M29 1300v167h1149v-167H703V0H505v1300H29z"/><glyph unicode="U" horiz-adv-x="1495" d="M164 575v892h197V577q0-92 26.5-169t76-132.5 122-86.5T749 158t162.5 30.5 121 86 76 132T1135 575v892h197V575q0-127-40.5-235.5T1176 152 992.5 28 749-17 505 28 320.5 152t-116 188T164 575z"/><glyph unicode="V" horiz-adv-x="1392" d="M8 1467h159q27 0 43-13t24-34L649 385q14-35 26-76t23-85q9 44 20 85t25 76l413 1035q7 17 24.5 32t43.5 15h159L785 0H606z"/><glyph unicode="W" horiz-adv-x="2086" d="M14 1467h165q27 0 44.5-13t23.5-34L550 400q8-28 14.5-59.5T578 274q7 35 14 67.5t16 58.5l345 1020q6 17 24 32t44 15h57q27 0 44-13t24-34l343-1020q18-53 33-121 6 34 11 64.5t13 56.5l304 1020q5 18 23 32.5t44 14.5h155L1614 0h-178l-372 1119q-11 32-21 74-5-20-9.5-39t-9.5-35L650 0H472z"/><glyph unicode="X" horiz-adv-x="1316" d="M14 0l505 754-484 713h197q22 0 32-7t19-20l383-588q7 22 21 47l362 537q9 14 19.5 22.5t26.5 8.5h189L798 763 1300 0h-196q-23 0-35.5 12T1048 38L654 653q-7-22-18-41L253 38q-9-14-21-26T199 0H14z"/><glyph unicode="Y" horiz-adv-x="1288" d="M8 1467h174q27 0 42.5-13t26.5-33l336-570q20-36 34-67.5t25-62.5q11 32 24.5 63.5T705 851l334 570q9 16 25 31t42 15h176L743 584V0H546v584z"/><glyph unicode="Z" horiz-adv-x="1277" d="M88 0v78q0 31 20 58l831 1170H127v161h1073v-73q0-35-21-66L348 162h838V0H88z"/><glyph unicode="[" horiz-adv-x="614" d="M145-296v1866h377v-72q0-23-13.5-35.5T472 1450H299V-175h173q23 0 36.5-13t13.5-36v-72H145z"/><glyph unicode="\" horiz-adv-x="768" d="M-20 1508h77q34 0 58.5-17t38.5-50L769-92h-77q-30 0-58.5 17.5T592-22z"/><glyph unicode="]" horiz-adv-x="614" d="M92-224q0 20 14 34.5t36 14.5h173v1625H142q-23 0-36.5 14T92 1498v72h377V-296H92v72z"/><glyph unicode="^" d="M162 806l366 661h118l367-661H881q-17 0-29.5 10T830 841l-200 360q-13 24-23 46t-17 43q-14-45-38-89L353 841q-8-14-19.5-24.5T301 806H162z"/><glyph unicode="_" horiz-adv-x="806" d="M0-169h807v-123H0v123z"/><glyph unicode="`" horiz-adv-x="628" d="M39 1484h173q34 0 50.5-11t30.5-34l152-248H341q-22 0-35 6.5t-27 22.5z"/><glyph unicode="a" horiz-adv-x="1038" d="M94 259q0 61 34 118t109 101 197 72.5T732 583v81q0 121-51.5 182.5T527 908q-67 0-112-17t-78.5-37.5T279 816t-48-17q-18 0-32 9.5T177 833l-33 58q86 83 185.5 124t220.5 41q87 0 154.5-29T818 947t69.5-123.5T911 664V0h-81q-27 0-43 8t-21 35l-21 96q-41-37-79.5-66T584 24 492-6 384-16Q324-16 271 .5T179 51t-62 85.5T94 259zm175 8q0-41 13.5-70.5t36-48.5 53-27.5T438 112q48 0 88 9.5t75.5 27.5 67.5 43.5 63 58.5v216q-126-4-214-20t-143.5-41.5T294 345t-25-78z"/><glyph unicode="b" horiz-adv-x="1144" d="M156 0v1508h183V888q65 75 148 120.5t191 45.5q90 0 162.5-34t124-101 79-166 27.5-228q0-115-30.5-213.5T952 141 810.5 27.5 623-14q-100 0-170.5 38.5T330 133l-9-94q-8-39-48-39H156zm183 250q49-68 109-95.5T582 127q145 0 223 103.5T883 525q0 101-18 174t-52 119.5-83.5 68T618 908q-89 0-156-41T339 752V250z"/><glyph unicode="c" horiz-adv-x="956" d="M76 519q0 116 32 214t94 169.5T355 1014t209 40q109 0 193-35.5T905 919l-48-66q-8-11-16-17.5t-24-6.5q-15 0-33 13t-45.5 28.5-67 28T574 911q-76 0-134-27t-97.5-78T283 682t-20-163q0-94 21.5-167T345 229t95-76 125-26q67 0 110 16t71.5 35.5 47 35T830 229q24 0 35-17l51-67Q848 62 747 24T534-14q-97 0-181 35.5t-145.5 104T111 293 76 519z"/><glyph unicode="d" horiz-adv-x="1144" d="M74 515q0 115 30.5 213.5T193 900t141 114.5 188 41.5q95 0 163-32.5T806 933v575h182V0H880q-39 0-50 38l-16 126Q747 83 662 34.5T466-14q-89 0-162 34T180 120.5t-78.5 166T74 515zm188 0q0-101 17.5-173.5t51.5-119 83-68T526 133q89 0 156.5 41T806 290v502q-50 68-110 94.5T563 913q-145 0-223-103t-78-295z"/><glyph unicode="e" horiz-adv-x="1073" d="M76 540q0 109 33 203t95.5 163T357 1014.5t203 39.5q93 0 172-31.5T868.5 932 958 786.5 990 590q0-43-9-57.5T946 518H256q2-98 26.5-171T350 225.5 452.5 153 586 129q69 0 118.5 16t85 34.5 59.5 34 42 15.5q23 0 35-17l51-67q-34-41-81-71T795 24.5t-111-29T570-14q-108 0-198 36T216 128.5t-103 174T76 540zm186 92h564q0 63-17 116t-51 91.5-83 59.5-111 21q-132 0-207.5-76.5T262 632z"/><glyph unicode="f" horiz-adv-x="690" d="M27 942v75h163v100q0 89 25.5 158.5t72 117 112 72T547 1489q70 0 129-21l-4-91q-1-20-17.5-24t-46.5-4h-31q-47 0-85.5-12.5t-66.5-40-42.5-72.5-14.5-112v-95h300V885H374V0H190v882L76 895q-22 5-35.5 16T27 942z"/><glyph unicode="g" horiz-adv-x="1046" d="M51-99q0 77 48.5 130.5T233 117q-44 20-70 54.5T137 263q0 23 8.5 47t25 47.5 41.5 45 57 37.5q-77 43-120.5 114.5T105 721q0 76 29.5 138T216 964.5t124.5 67T499 1055q68 0 126.5-15T732 996h282v-67q0-34-43-43l-118-17q35-67 35-148 0-76-29.5-138t-81-106T655 409.5 499 386q-73 0-138 17-33-20-49.5-43.5T295 313q0-37 29.5-55.5t79-27 112-10.5 127.5-6.5 127.5-16 111.5-37T960.5 90 990-27q0-67-33-129t-95.5-110.5-153-78T505-374q-114 0-199.5 22.5T164-291t-84.5 87.5T51-99zm160 23q0-35 18-65t55-52 92.5-35T508-241q74 0 132 13.5t98.5 38 62 58.5T822-56q0 39-21.5 62.5t-58 36-85 19-101.5 9T447.5 76 342 87q-58-28-94.5-67.5T211-76zm62 792q0-46 15-84.5t43.5-66 71-43T499 507q55 0 97.5 15.5t71 43 43 66T725 716q0 95-58 151.5T499 924t-168-56.5T273 716z"/><glyph unicode="h" horiz-adv-x="1138" d="M150 0v1508h182V898q67 71 147.5 113.5T666 1054q85 0 150-28.5t108.5-80 66-124T1013 660V0H830v660q0 118-53.5 183T612 908q-81 0-151-39T332 764V0H150z"/><glyph unicode="i" horiz-adv-x="524" d="M133 1363q0 27 10.5 51t28 42 41 28 49.5 10q27 0 50.5-10t41.5-28 28.5-42 10.5-51-10.5-50-28.5-41-41.5-28-50.5-10-50 10-40.5 28-28 41-10.5 50zM170 0v1037h182V0H170z"/><glyph unicode="j" horiz-adv-x="520" d="M-57-352l8 98q2 13 9 17t23 4q8 0 17-.5t23-.5q80 0 113.5 37T170-77v1114h182V-77q0-62-16.5-116T284-287t-91-63-134-23q-34 0-61.5 5.5T-57-352zm190 1715q0 27 10.5 51t28 42 41 28 49.5 10q27 0 50.5-10t41.5-28 28.5-42 10.5-51-10.5-50-28.5-41-41.5-28-50.5-10-50 10-40.5 28-28 41-10.5 50z"/><glyph unicode="k" horiz-adv-x="1073" d="M156 0v1508h183V621h47q20 0 33.5 5.5T450 649l327 351q15 16 30.5 26.5T849 1037h166L633 631q-14-17-28-30.5T573 577q18-12 33.5-28.5T635 512L1040 0H877q-23 0-39 8.5T808 36L467 461q-15 22-30.5 28.5T390 496h-51V0H156z"/><glyph unicode="l" horiz-adv-x="524" d="M170 0v1508h182V0H170z"/><glyph unicode="m" horiz-adv-x="1681" d="M150 0v1037h108q39 0 49-38l14-106q57 71 128 116t165 45q105 0 170.5-58.5T879 838q22 56 57 97t79 67.5 93.5 39T1209 1054q82 0 146-26.5t108.5-76.5 68-123 23.5-168V0h-182v660q0 122-53 185t-155 63q-45 0-85.5-15.5t-71-46.5-48.5-77.5T942 660V0H760v660q0 125-50.5 186.5T563 908q-68 0-125.5-36T332 773V0H150z"/><glyph unicode="n" horiz-adv-x="1138" d="M150 0v1037h108q39 0 49-38l15-112q68 75 151 121t193 46q85 0 150-28.5t108.5-80 66-124T1013 660V0H830v660q0 118-53.5 183T612 908q-81 0-151-39T332 764V0H150z"/><glyph unicode="o" horiz-adv-x="1138" d="M74 519q0 122 34.5 221t99 168.5 156 107.5 205.5 38 205.5-38T930 908.5t98.5-168.5 34.5-221q0-123-34.5-221T930 130 774.5 23 569-14 363.5 23t-156 107-99 168T74 519zm188-1q0-92 19-164.5T338.5 231t95.5-76.5T569 128q154 0 229.5 103T874 518q0 185-75.5 288.5T569 910q-78 0-135-26.5T338.5 807 281 683.5 262 518z"/><glyph unicode="p" horiz-adv-x="1130" d="M150-351v1388h108q39 0 49-38l16-122q67 81 152 130t197 49q89 0 161.5-34.5t124-101.5 79-166.5T1064 525q0-115-31-213.5T945 141 804.5 27.5 616-14q-96 0-164 31.5T332 108v-459H150zm182 601q50-68 110-95.5T575 127q144 0 222.5 103.5T876 525q0 101-18 174t-52 119.5-83.5 68T611 908q-89 0-156-41T332 752V250z"/><glyph unicode="q" horiz-adv-x="1144" d="M74 515q0 115 30.5 213.5T193 900t141 114.5 188 41.5q100 0 170.5-36T818 919l12 80q10 38 50 38h108V-351H806v505Q740 78 656.5 32T466-14q-89 0-162 34T180 120.5t-78.5 166T74 515zm188 0q0-101 17.5-173.5t51.5-119 83-68T526 133q89 0 156.5 41T806 290v502q-49 66-109.5 93.5T563 913q-145 0-223-103t-78-295z"/><glyph unicode="r" horiz-adv-x="825" d="M150 0v1037h104q30 0 41-11t15-39l13-162q53 109 131 170t184 61q43 0 78-10t64-27l-23-136q-7-26-32-26-14 0-44 10t-83 10q-95 0-159-55.5T332 660V0H150z"/><glyph unicode="s" horiz-adv-x="888" d="M63 110l43 69q8 13 19.5 20.5T156 207q18 0 38.5-14.5t49.5-32 70.5-31.5T419 115q53 0 93 13.5t66.5 37T618 220t13 66q0 43-23 71t-61 48-86.5 35-99.5 31-99.5 37-86.5 53-61 78.5T91 753q0 59 24.5 114t71.5 96.5 116 66 157 24.5q102 0 183.5-32.5T784 933l-41-67q-12-23-37-22-15 0-35 11t-48 25-67 26-92 12q-46 0-83-12t-63-32.5-40-47.5-14-59q0-40 23-66.5t61-46 86-34.5 99-32 99-37.5 86-51 61-75T802 317q0-72-25.5-132.5t-76-105-123-70T410-16q-109 0-197 35T63 110z"/><glyph unicode="t" horiz-adv-x="763" d="M45 925v72l170 22 42 320q2 15 13.5 25t28.5 10h92v-357h297V885H391V262q0-66 32-97.5t82-31.5q29 0 49.5 7.5t36 17 26.5 17 19 7.5q14 0 26-17l53-87Q668 34 601.5 9T464-16q-123 0-189 68.5T209 250v635H84q-16 0-27.5 9.5T45 925z"/><glyph unicode="u" horiz-adv-x="1138" d="M125 376v661h182V376q0-118 54.5-182.5T525 129q80 0 150.5 38T806 272v765h182V0H880q-39 0-50 38l-14 112Q748 75 664.5 29.5T472-16q-85 0-150 28T213 91t-66 124-22 161z"/><glyph unicode="v" horiz-adv-x="1048" d="M18 1037h150q22 0 36-11t20-27l263-667q14-37 22.5-74t15.5-73q8 36 17.5 73t23.5 74l267 667q6 16 19.5 27t34.5 11h142L606 0H441z"/><glyph unicode="w" horiz-adv-x="1568" d="M14 1037h144q23 0 37-11t19-27l199-667q8-37 15-71.5t12-69.5q8 35 18.5 69.5T480 332l219 672q5 15 18 25t33 10h78q20 0 34-10t19-25l214-672q11-36 19.5-71t17.5-68q5 34 13 70.5t17 68.5l203 667q5 16 19.5 27t33.5 11h137L1220 0h-145q-27 0-37 35L809 738q-8 24-13 48t-11 48q-5-24-10-48.5T762 737L529 35Q518 0 487 0H350z"/><glyph unicode="x" horiz-adv-x="1032" d="M29 0l363 531-349 506h175q23 0 33-7t18-20l254-389q9 29 27 57l223 328q10 14 20.5 22.5t25.5 8.5h168L638 542 1001 0H826q-23 0-35.5 12T770 38L509 444q-7-30-22-53L246 38q-10-14-22-26T191 0H29z"/><glyph unicode="y" horiz-adv-x="1048" d="M14 1037h158q24 0 37-11.5t19-26.5l278-653q9-23 15.5-45t12.5-46q7 24 14 46.5t16 45.5l270 652q6 16 20.5 27t32.5 11h145L454-306q-9-20-23-32.5T388-351H253L442 60z"/><glyph unicode="z" horiz-adv-x="946" d="M72 0v76q0 13 6.5 31T97 141l565 753H103v143h770v-78q0-19-7-37t-18-32L287 142h566V0H72z"/><glyph unicode="{" horiz-adv-x="614" d="M45 583v109q69 0 104.5 41T185 840q0 51-8 101t-17.5 100.5-18 101.5-8.5 104q0 71 21 130.5t63.5 102.5 105.5 66.5 147 23.5h54v-81q0-20-14-29.5t-27-9.5h-20q-79 0-124.5-51.5T293 1258q0-57 7-110t16.5-104T333 943t7-101q0-39-11.5-72.5T296 710t-49-45-62-28q34-9 62-28t49-45.5 32.5-59.5 11.5-71q0-51-7-101t-16.5-101T300 127t-7-111q0-89 45.5-140T463-175h20q12 0 26.5-9.5T524-214v-82h-54q-84 0-147 24t-105.5 67T154-102.5 133 28q0 53 8.5 103.5t18 101.5T177 334t8 101q0 65-35.5 106.5T45 583z"/><glyph unicode="|" horiz-adv-x="614" d="M236-351v1921h141V-351H236z"/><glyph unicode="}" horiz-adv-x="614" d="M90-214q0 20 14.5 29.5T131-175h21q79 0 124.5 51T322 16q0 57-7.5 110.5T298 231t-16.5 101-7.5 101q0 38 11.5 71t32.5 59.5 49 45.5 62 28q-34 9-62 28t-49 45-32.5 59.5T274 842q0 51 7.5 101t16.5 101 16.5 104 7.5 110q0 88-46 140t-124 52h-21q-12 0-26.5 9T90 1489v81h54q84 0 147-23.5t105-66.5 63.5-102.5T481 1247q0-53-8-104t-18-101.5T437 941t-8-101q0-66 36-107t104-41V583q-69 0-104.5-41.5T429 435q0-51 8-101t18-101 18-101.5T481 28q0-71-21.5-130.5T396-205t-105-67-147-24H90v82z"/><glyph unicode="~" d="M119 424q0 69 19 126t54 98 87 64 118 23q53 0 105.5-17t101-36.5T696 645t81-17q67 0 104.5 43.5T920 786h147q0-69-19-126t-54.5-98-87.5-63.5T788 476q-53 0-105 16.5T582.5 529t-93 37-80.5 17q-67 0-104.5-43T266 424H119z"/><glyph unicode="¡" horiz-adv-x="702" d="M223 926q0 28 10 50.5t27.5 40T301 1044t50 10 50-10 40.5-27.5T469 976t10-50-10-50.5-27.5-41T401 807t-50-10q-28 0-50.5 10t-40 27.5-27.5 41-10 50.5zm45-723q0 46 1.5 89.5t5 88 8 91.5T293 572h124q6-53 10.5-100t7.5-91.5 4.5-88T441 203v-554H268v554z"/><glyph unicode="¢" d="M141 518q0 114 34 209.5T273.5 894 432 1006.5t216 44.5l12 183q2 20 16 35t36 15h67l-16-238q84-12 151.5-44.5T1037 919l-47-64q-8-11-15.5-16.5T952 833q-12 0-29 8.5T883 862t-55 24.5-75 19.5l-54-780q65 4 108.5 20t73.5 33.5 49.5 31.5 36.5 14q11 0 20-4.5t14-11.5l50-65Q990 70 895 32.5T690-12l-12-179q-2-19-16-34.5T627-241h-68l15 230Q480-1 401 39.5t-137 108T173.5 308 141 518zm182 0q0-166 69-264t193-122l53 778q-78-6-137-35t-99-80-59.5-120.5T323 518z"/><glyph unicode="£" d="M53 629v59q0 27 16.5 45.5T116 752h137v267q0 96 27.5 180.5t84 147.5 140.5 99.5 196 36.5q80 0 142-20t110-55 83.5-81 60.5-99l-74-47q-10-6-21-9t-21-3q-14 0-27 6t-24 20q-20 26-41.5 50t-47.5 42-59.5 28.5T701 1326q-65 0-113.5-21.5T506 1243t-49.5-96-16.5-126V752h452v-74q0-18-15.5-33.5T839 629H440V380q0-77-29-133t-80-102q30 5 59 9t60 4h692V80q0-14-6-28t-16-26-24.5-19-32.5-7H76v118q35 10 66.5 27.5t56 43.5 39.5 61.5 15 82.5v296H53z"/><glyph unicode="¤" d="M135 1052l93 92 155-156q45 32 98.5 49.5T594 1055q58 0 110.5-17t96.5-48l156 157 92-93-155-156q32-45 49.5-97.5T961 688q0-58-17-110.5T897 481l156-154-94-95-155 156q-45-31-98.5-48T594 323t-110 16.5-97 46.5L230 229l-91 94 155 155q-31 45-48.5 98T228 688q0 58 17 110t47 97zm229-364q0-47 17.5-88.5T431 527t73.5-49.5T594 459t90.5 18.5 74 49.5 49.5 72.5 18 88.5q0 48-18 90t-49.5 74-74 50-90.5 18-89.5-18-73.5-50-49.5-74-17.5-90z"/><glyph unicode="¥" d="M45 1467h153q27 0 42.5-12.5T266 1421l283-579q14-36 24.5-66t17.5-59q7 30 16 60t24 65l281 579q8 17 25 31.5t43 14.5h154L715 640h314V536H681V428h348V323H681V0H498v323H150v105h348v108H150v104h313z"/><glyph unicode="¦" horiz-adv-x="614" d="M236-351v814h141v-814H236zm0 1108v813h141V757H236z"/><glyph unicode="§" horiz-adv-x="1030" d="M117 715q0 80 44 144t139 99q-51 39-83.5 93T184 1182q0 59 24.5 114t72 96 116 65.5T553 1482q102 0 183.5-32t141.5-88l-41-67q-12-23-38-22-15 0-35 11t-48 25-67 26-92 12q-49 0-88.5-13t-66.5-34.5-41.5-50T346 1189q0-39 25-68t65.5-53.5 93-46.5 106-45.5 106-51.5 92.5-64.5 65.5-83.5T925 667q0-83-40-148T759 415q50-38 81.5-88.5T872 206q0-72-25.5-133t-75-105.5-123-70T481-128q-109 0-196.5 35.5T135-2l42 70q8 13 20 20t29 7q18 0 39-14t50.5-32 73-32.5T497 2q51 0 91.5 13t68 36 42 54.5T713 176q0 46-25.5 80T620 316t-95.5 47.5-110 44T305 456t-95 62-67.5 83.5T117 715zm162 28q0-52 35.5-88.5T406 589t123.5-56T660 474q55 27 80 65.5t25 86.5q0 37-15.5 65.5t-42 52-62.5 43-76.5 37.5-83.5 36-84 38q-68-31-95-68.5T279 743z"/><glyph unicode="¨" horiz-adv-x="628" d="M14 1320q0 24 9.5 45t25.5 37 36 25.5 43 9.5q24 0 45-9.5t37-25.5 25.5-37 9.5-45-9.5-44.5T210 1240t-37-24.5-45-9.5q-23 0-43 9.5T49 1240t-25.5 35.5T14 1320zm368 0q0 24 9 45t24.5 37 36.5 25.5 45 9.5 44.5-9.5T578 1402t25-37 9-45-9-44.5-25-35.5-37-24.5-44-9.5q-24 0-45 9.5t-36.5 24.5-24.5 35.5-9 44.5z"/><glyph unicode="©" horiz-adv-x="1634" d="M70 733q0 103 26.5 199t75 179.5 117 151.5T440 1380.5t178.5 76T817 1483t199-26.5 179-76 151.5-117.5 117-151.5 75.5-179 27-199.5q0-102-27-198t-75.5-179-117-151T1195 88t-178.5-75.5T817-14q-103 0-198.5 26.5T440 88 288.5 205t-117 151-75 178.5T70 733zm102 0q0-91 22.5-175T259 401t100.5-132.5 130-102T644 101t173-23q135 0 253.5 51t206 139.5 138 208T1465 733q0 91-23 176t-65 158.5-100.5 134-130.5 103-155.5 66T817 1394q-135 0-253-52t-205-141.5-137-210T172 733zm202 2q0 103 35 190t97.5 149 148 96 186.5 34q111 0 188.5-34.5T1165 1078l-47-66q-5-6-13-12.5t-21-6.5q-14 0-30 11.5t-41.5 25T948 1055t-99 12q-72 0-129.5-23t-98-66T559 873.5 537 735q0-79 22-141t60.5-103.5 93-64T830 404q49 0 83 6.5t58.5 16.5 44 22.5T1055 474q8 5 13.5 8.5t11.5 3.5q11 0 15.5-3t10.5-9l62-65q-58-68-143-105.5T821 266q-100 0-182.5 35T497 398.5 406 547t-32 188z"/><glyph unicode="ª" horiz-adv-x="700" d="M94 1017q0 35 19.5 69t64.5 61.5 119.5 45T481 1212v38q0 65-29.5 95.5T364 1376q-39 0-65-9t-44.5-20-33.5-19.5-32-8.5q-14 0-24 7.5t-15 18.5l-23 43q53 50 115 73.5t137 23.5q55 0 98-17.5t73-48 45-73.5 15-96V860h-61q-18 0-27.5 5.5T504 890l-12 50q-25-22-48.5-38t-49-28-54.5-17.5-64-5.5q-39 0-72 10t-57.5 31-38.5 52-14 73zm128 6q0-43 26.5-60.5T316 945q52 0 90 19.5t75 55.5v107q-72-2-121.5-10.5t-80-22.5-44-32-13.5-39z"/><glyph unicode="«" horiz-adv-x="948" d="M141 530v24l255 398 60-28q14-7 21-18.5t7-24.5q0-17-10-34L311 580q-14-25-28-38 15-14 28-37l163-267q5-8 7.5-17.5T484 203q0-29-28-42l-60-29zm303 0v24l255 398 60-28q14-7 21-18.5t7-24.5q0-17-10-34L614 580q-14-25-28-38 15-14 28-37l163-267q5-8 7.5-17.5T787 203q0-29-28-42l-60-29z"/><glyph unicode="¬" d="M152 618v139h880V323H878v295H152z"/><glyph unicode="­" horiz-adv-x="710" d="M102 537v154h506V537H102z"/><glyph unicode="®" horiz-adv-x="1634" d="M70 733q0 103 26.5 199t75 179.5 117 151.5T440 1380.5t178.5 76T817 1483t199-26.5 179-76 151.5-117.5 117-151.5 75.5-179 27-199.5q0-102-27-198t-75.5-179-117-151T1195 88t-178.5-75.5T817-14q-103 0-198.5 26.5T440 88 288.5 205t-117 151-75 178.5T70 733zm102 0q0-91 22.5-175T259 401t100.5-132.5 130-102T644 101t173-23q135 0 253.5 51t206 139.5 138 208T1465 733q0 91-23 176t-65 158.5-100.5 134-130.5 103-155.5 66T817 1394q-135 0-253-52t-205-141.5-137-210T172 733zm338-454v913h295q176 0 261-64t85-189q0-96-55-163.5T933 682q17-10 30-25.5t24-35.5l234-342h-152q-34 0-50 25L813 613q-9 13-22 20.5t-39 7.5h-82V279H510zm160 479h118q56 0 96 10.5t64 31 34.5 50.5 10.5 69q0 38-9.5 66.5t-31.5 47-58 27.5-89 9H670V758z"/><glyph unicode="¯" horiz-adv-x="628" d="M20 1261v119h588v-119H20z"/><glyph unicode="°" horiz-adv-x="813" d="M72 1155q0 69 25.5 129.5t70.5 105 106 70 132 25.5 131.5-25.5 105.5-70 70.5-105T739 1155q0-68-25.5-127.5t-70.5-104-106-71T406 826q-71 0-132 26.5t-106 71-70.5 104T72 1155zm130-1q0-43 15-80.5t43-65 65-43.5 81-16q43 0 79.5 16t64.5 43.5 43 65 15 80.5-15 81-43 66-64.5 44-79.5 16-80.5-16-65.5-44-43-66-15-81z"/><glyph unicode="±" d="M102 82v138h981V82H102zm0 625v139h415v385h150V846h416V707H667V330H517v377H102z"/><glyph unicode="²" horiz-adv-x="679" d="M84 922v44q0 13 5 27.5t17 26.5l227 224q26 26 48 52.5t38.5 53.5 26.5 54.5 10 54.5q0 52-31 80.5t-77 28.5q-47 0-76-24.5t-44-67.5q-8-14-17.5-22.5T183 1445q-4 0-8.5.5t-9.5 1.5l-73 12q15 109 86 163t176 54q53 0 97-15t74.5-43 47.5-67.5 17-87.5q0-41-13-76t-34.5-67-49-61.5T435 1198l-166-169q24 6 48 10t45 4h200q22 0 33.5-11t11.5-32v-78H84z"/><glyph unicode="³" horiz-adv-x="679" d="M86 1111l56 25q15 6 30 6 30 0 41-24 6-13 15.5-29.5t24.5-31 37-24 55-9.5q32 0 56 10t40.5 26 24.5 36.5 8 42.5q0 31-8.5 52.5t-28.5 36-53.5 21.5-81.5 7v90q89 1 125.5 31.5T464 1461q0 51-30 78t-79 27-78-24-41-65q-8-16-17-24t-24-8q-4 0-9 .5t-10 1.5l-68 12q7 54 29.5 94.5t55.5 68 76 41 93 13.5q52 0 94.5-14.5t72.5-41 46.5-61T592 1484q0-131-122-177 68-19 103-59.5t35-103.5q0-56-21.5-99.5T530 972t-82-44-96-15q-58 0-101 13t-74.5 38-53.5 62-37 85z"/><glyph unicode="´" horiz-adv-x="628" d="M201 1191l151 248q14 24 31 34.5t50 10.5h178l-238-264q-14-15-28-22t-36-7H201z"/><glyph unicode="µ" horiz-adv-x="1138" d="M125-273v1310h182V364q0-112 55.5-173.5T525 129q80 0 150.5 38T806 272v765h182V0H880q-39 0-50 38l-14 112Q747 76 675 41T514 6q-76 0-133 26t-97 73q7-43 10-87.5t3-83.5v-285h-91q-39 0-60 20.5T125-273z"/><glyph unicode="¶" horiz-adv-x="1370" d="M43 1074q0 88 32.5 160.5t92 124 144.5 80 192 28.5h829v-156h-224V-206H948v1517H665V-206H504v882q-106 0-191.5 31t-145 85-92 126.5T43 1074z"/><glyph unicode="·" horiz-adv-x="559" d="M127 607q0 32 12 60.5t33 49 48.5 33T279 762q32 0 60.5-12.5t49-33 32.5-49 12-60.5q0-31-12-58.5T388.5 500 339 467.5 279 456t-58.5 11.5T172 500t-33 48.5-12 58.5z"/><glyph unicode="¸" horiz-adv-x="628" d="M135-328l18 57q6 18 23 18 6 0 14.5-3.5t19.5-8 27.5-8T275-276q43 0 65 16.5t22 43.5q0 19-11 32.5T319-161t-51.5 15.5T198-134l44 144h114l-24-82q92-20 133.5-55.5T507-218q0-33-16.5-59T445-321.5t-70-28-90-9.5q-42 0-80 8.5T135-328z"/><glyph unicode="¹" horiz-adv-x="679" d="M123 1476l227 194h111v-661h133v-87H177v87h151v450l4 44-110-90q-12-9-26-9-24 0-33 14z"/><glyph unicode="º" horiz-adv-x="780" d="M74 1167q0 73 22.5 132t64 100 99.5 63 131 22q72 0 130-22t98.5-63 63.5-100 23-132q0-74-23-133t-63.5-100.5T521 870t-130-22q-73 0-131 22t-99.5 63.5-64 101T74 1167zm143-1q0-102 42.5-156T391 956q86 0 128.5 54t42.5 156-42.5 155.5T391 1375q-89 0-131.5-53T217 1166z"/><glyph unicode="»" horiz-adv-x="948" d="M154 203q0 17 10 35l163 267q13 25 27 37-12 11-27 38L164 847q-10 17-10 35 0 29 28 42l60 28 255-398v-24L242 132l-60 29q-29 13-28 42zm303 0q0 17 10 35l163 267q13 25 27 37-12 11-27 38L467 847q-10 17-10 35 0 29 28 42l60 28 255-398v-24L545 132l-60 29q-29 13-28 42z"/><glyph unicode="¼" horiz-adv-x="1458" d="M104 1274l228 194h110V807h133v-87H159v87h150v450l4 45-109-91q-12-9-27-9-24 0-33 15zM272 0l838 1405q18 30 42 46t56 16h79L444 54q-19-32-41.5-43T350 0h-78zm577 267l350 479h127V273h112v-66q0-11-7.5-19t-20.5-8h-84V0h-112v180H901q-18 0-29 8.5T859 209zm124 6h241v247q0 19 1.5 42t4.5 46z"/><glyph unicode="½" horiz-adv-x="1458" d="M104 1274l228 194h110V807h133v-87H159v87h150v450l4 45-109-91q-12-9-27-9-24 0-33 15zM227 0l838 1405q18 30 41.5 46t56.5 16h79L399 54q-19-32-41.5-43T305 0h-78zm656 0v44q0 13 5 27.5T905 98l227 225q26 26 48 52t38.5 53.5 26 54.5 9.5 55q0 52-30.5 80t-76.5 28q-47 0-76.5-24.5T1027 554q-8-14-18-22.5t-27-8.5q-4 0-8.5.5T964 525l-73 13q15 109 86 163t176 54q53 0 96.5-15.5t74.5-43 48-67 17-87.5q0-41-13-76.5t-34.5-67-49-61.5-58.5-61l-166-168q24 6 48 10t45 4h200q22 0 33.5-11.5T1406 79V0H883z"/><glyph unicode="¾" horiz-adv-x="1460" d="M70 909l56 25q15 6 30 6 30 0 41-24 6-13 15-29.5t24.5-30.5 37.5-24 55-10q32 0 56 10.5t40 26 24.5 36T458 937q0 31-9 53t-29 36-53 21.5-81 7.5v89q89 1 125 31.5t36 84.5q0 51-29.5 77.5T339 1364t-78.5-24-41.5-65q-8-16-16.5-24t-24.5-8q-4 0-8.5.5t-9.5 1.5l-69 12q7 54 29.5 95t56 68 76.5 41 93 14q52 0 94-15t72.5-41 46.5-61 16-76q0-131-121-177 68-19 103-59t35-104q0-56-21.5-99t-57-72.5-82-44T336 712q-58 0-101.5 12.5T160 762t-53 62-37 85zM278 0l837 1405q18 30 42 46t56 16h79L450 54q-19-32-42-43T355 0h-77zm572 267l350 479h127V273h112v-66q0-11-7.5-19t-20.5-8h-84V0h-112v180H902q-18 0-29 8.5T860 209zm124 6h241v247q0 19 1.5 42t4.5 46z"/><glyph unicode="¿" horiz-adv-x="815" d="M45-38q0 78 23 132t58.5 93 77.5 67 78 52.5 62.5 49.5 30.5 59l18 157h125l12-171v-12q0-45-23-76.5T449 255t-75.5-50-76-54.5T239 79 216-23q0-45 17.5-80t47-60 70-38.5T437-215q62 0 107 15.5t75.5 34 50 33.5 31.5 15q14 0 23-6t16-17l48-77q-32-30-70-56.5t-83-47-98.5-32.5T422-365q-81 0-150 23t-119.5 64.5-79 102T45-38zm287 963q0 27 9.5 50t26.5 40.5 40.5 28T459 1054t50-10.5 40.5-28 27.5-41 10-49.5q0-28-10-51t-27.5-40.5-41-27T459 797q-27 0-50.5 9.5t-40.5 27-26.5 40.5-9.5 51z"/><glyph unicode="À" horiz-adv-x="1392" d="M10 0l587 1467h202L1385 0h-153q-27 0-43.5 13.5T1164 47l-137 354H369L231 47q-7-18-24.5-32.5T164 0H10zm317 1825h206q33 0 49-7t37-27l216-208H693q-22 0-34.5 3.5T629 1603zm97-1280h548l-231 597q-23 55-44 138-11-42-21.5-77.5T654 1141z"/><glyph unicode="Á" horiz-adv-x="1392" d="M10 0l587 1467h202L1385 0h-153q-27 0-43.5 13.5T1164 47l-137 354H369L231 47q-7-18-24.5-32.5T164 0H10zm414 545h548l-231 597q-23 55-44 138-11-42-21.5-77.5T654 1141zm114 1038l216 208q10 10 19 16.5t18 10.5 20.5 5.5 28.5 1.5h206l-301-221q-17-12-30.5-16.5T679 1583H538z"/><glyph unicode="Â" horiz-adv-x="1392" d="M10 0l587 1467h202L1385 0h-153q-27 0-43.5 13.5T1164 47l-137 354H369L231 47q-7-18-24.5-32.5T164 0H10zm353 1583l243 215h180l244-215H892q-12 0-26.5 3.5T842 1596l-133 98q-8 4-13 8-8-6-12-8l-133-98q-9-6-23.5-9.5T501 1583H363zm61-1038h548l-231 597q-23 55-44 138-11-42-21.5-77.5T654 1141z"/><glyph unicode="Ã" horiz-adv-x="1392" d="M10 0l587 1467h202L1385 0h-153q-27 0-43.5 13.5T1164 47l-137 354H369L231 47q-7-18-24.5-32.5T164 0H10zm400 1585q0 44 11.5 81.5t33.5 64 54.5 42T582 1788q36 0 68.5-13.5t62-29 56-29T820 1703q36 0 55 21t20 59h100q0-44-11-81t-32.5-64-53.5-42-73-15q-36 0-68.5 13.5t-62.5 29-57 29-51 13.5q-35 0-54-22t-20-59H410zm14-1040h548l-231 597q-23 55-44 138-11-42-21.5-77.5T654 1141z"/><glyph unicode="Ä" horiz-adv-x="1392" d="M10 0l587 1467h202L1385 0h-153q-27 0-43.5 13.5T1164 47l-137 354H369L231 47q-7-18-24.5-32.5T164 0H10zm357 1706q0 24 9 45t24.5 36 35.5 24.5 41 9.5q24 0 45-9.5t36-24.5 24.5-36 9.5-45q0-23-9.5-42.5t-24.5-35-36-24.5-45-9q-22 0-41.5 9t-35 24.5-24.5 35-9 42.5zm57-1161h548l-231 597q-23 55-44 138-11-42-21.5-77.5T654 1141zm379 1161q0 24 8.5 45t24 36 36 24.5 43.5 9.5 43.5-9.5 36-24.5 24.5-36 9-45q0-23-9-42.5t-24.5-35-36-24.5-43.5-9q-24 0-44 9t-35.5 24.5-24 35-8.5 42.5z"/><glyph unicode="Å" horiz-adv-x="1392" d="M10 0l587 1467h202L1385 0h-153q-27 0-43.5 13.5T1164 47l-137 354H369L231 47q-7-18-24.5-32.5T164 0H10zm414 545h548l-231 597q-23 55-44 138-11-42-21.5-77.5T654 1141zm77 1154q0 40 16 73.5t42 57.5 60.5 37.5T693 1881q40 0 75.5-13.5T831 1830t42.5-57.5T889 1699q0-39-15.5-72t-42.5-56.5-62.5-36.5-75.5-13q-39 0-73.5 13t-60.5 36.5-42 56.5-16 72zm91 0q0-44 27.5-73.5T695 1596q46 0 74.5 29.5T798 1699q0 46-28.5 74.5T695 1802q-48 0-75.5-28.5T592 1699z"/><glyph unicode="Æ" horiz-adv-x="1902" d="M-25 0l776 1467h1045v-161h-767l62-488h572V663h-553l62-501h624V0h-790l-51 401H386L203 46q-11-20-30-33T127 0H-25zm486 545h476l-96 771q-12-42-27-77.5t-30-67.5z"/><glyph unicode="Ç" horiz-adv-x="1402" d="M92 733q0 166 54 304.5T297 1275t233 154 299 55q162 0 279.5-50.5T1317 1297l-65-91q-7-10-16-16.5t-27-6.5q-13 0-28 9.5t-35.5 24-48 31-65.5 30.5-88 24-116 10q-118 0-215.5-40.5t-168-115.5-110-182.5T295 733q0-137 39.5-244.5t107.5-182 161-113T804 155q66 0 118 7.5t96.5 24 83 41.5 77.5 60q17 15 33 15t30-13l78-85q-85-99-204.5-156.5T830-15l-16-57q92-20 133.5-55.5T989-218q0-33-16.5-59T927-321.5t-70-28-90-9.5q-42 0-80 8.5T617-328l18 57q6 18 23 18 6 0 14.5-3.5t19.5-8 27.5-8T758-276q43 0 65 16.5t22 43.5q0 19-11.5 32.5T801-161t-51.5 15.5T680-134l37 121Q575-1 459 59T261.5 216.5 136 445.5 92 733z"/><glyph unicode="È" horiz-adv-x="1189" d="M178 0v1467h904v-161H378V818h570V663H378V162h704V0H178zm95 1825h206q33 0 49-7t37-27l216-208H639q-22 0-34.5 3.5T575 1603z"/><glyph unicode="É" horiz-adv-x="1189" d="M178 0v1467h904v-161H378V818h570V663H378V162h704V0H178zm306 1583l216 208q10 10 19 16.5t18 10.5 20.5 5.5 28.5 1.5h206l-301-221q-17-12-30.5-16.5T625 1583H484z"/><glyph unicode="Ê" horiz-adv-x="1189" d="M178 0v1467h904v-161H378V818h570V663H378V162h704V0H178zm132 1583l243 215h180l244-215H839q-12 0-26.5 3.5T789 1596l-133 98q-8 4-13 8-8-6-12-8l-133-98q-9-6-23.5-9.5T448 1583H310z"/><glyph unicode="Ë" horiz-adv-x="1189" d="M178 0v1467h904v-161H378V818h570V663H378V162h704V0H178zm136 1706q0 24 9 45t24.5 36 35.5 24.5 41 9.5q24 0 45-9.5t36-24.5 24.5-36 9.5-45q0-23-9.5-42.5t-24.5-35-36-24.5-45-9q-22 0-41.5 9t-35 24.5-24.5 35-9 42.5zm436 0q0 24 8.5 45t24 36 36 24.5 43.5 9.5 43.5-9.5 36-24.5 24.5-36 9-45q0-23-9-42.5t-24.5-35-36-24.5-43.5-9q-24 0-44 9t-35.5 24.5-24 35-8.5 42.5z"/><glyph unicode="Ì" horiz-adv-x="628" d="M-53 1825h206q33 0 49-7t37-27l216-208H313q-22 0-34.5 3.5T249 1603zM215 0v1467h199V0H215z"/><glyph unicode="Í" horiz-adv-x="628" d="M158 1583l216 208q10 10 19 16.5t18 10.5 20.5 5.5 28.5 1.5h206l-301-221q-17-12-30.5-16.5T299 1583H158zM215 0v1467h199V0H215z"/><glyph unicode="Î" horiz-adv-x="628" d="M-17 1583l243 215h180l244-215H512q-12 0-26.5 3.5T462 1596l-133 98q-8 4-13 8-8-6-12-8l-133-98q-9-6-23.5-9.5T121 1583H-17zM215 0v1467h199V0H215z"/><glyph unicode="Ï" horiz-adv-x="628" d="M-14 1706q0 24 9 45t24.5 36 35.5 24.5 41 9.5q24 0 45-9.5t36-24.5 24.5-36 9.5-45q0-23-9.5-42.5t-24.5-35-36-24.5-45-9q-22 0-41.5 9t-35 24.5-24.5 35-9 42.5zM215 0v1467h199V0H215zm207 1706q0 24 8.5 45t24 36 36 24.5 43.5 9.5 43.5-9.5 36-24.5 24.5-36 9-45q0-23-9-42.5t-24.5-35-36-24.5-43.5-9q-24 0-44 9t-35.5 24.5-24 35-8.5 42.5z"/><glyph unicode="Ð" horiz-adv-x="1615" d="M51 682v117h202v668h548q162 0 295.5-52.5T1325 1265t147.5-232 52.5-300-52.5-300T1325 201.5t-228.5-149T801 0H253v682H51zm401-521h349q119 0 215 39t163.5 112T1284 491.5t37 241.5-37 241.5-104.5 180.5-163.5 113-215 39H452V799h390V682H452V161z"/><glyph unicode="Ñ" horiz-adv-x="1548" d="M178 0v1467h103q27 0 39.5-6.5T349 1434l850-1106q-3 27-4 51.5t-1 48.5v1039h174V0h-100q-24 0-40 8t-31 28L348 1141q2-26 3-50.5t1-44.5V0H178zm334 1585q0 44 11.5 81.5t33.5 64 54.5 42T684 1788q36 0 68.5-13.5t62-29 56-29T922 1703q36 0 55 21t20 59h100q0-44-11-81t-32.5-64-53.5-42-73-15q-36 0-68.5 13.5t-62.5 29-57 29-51 13.5q-35 0-54-22t-20-59H512z"/><glyph unicode="Ò" horiz-adv-x="1634" d="M94 733q0 165 52.5 303T294 1273.5t228 155 295 55.5 295.5-55.5 229-155T1489 1036t52-303-52-302.5-147.5-237-229-154T817-15 522 39.5t-228 154-147.5 237T94 733zm203 0q0-135 37-242t105-181 164-113.5T817 157q119 0 215 39.5T1196 310t104.5 181 36.5 242-36.5 242.5-104.5 182-164 114.5-215 40q-118 0-214-40t-164-114.5-105-182T297 733zm153 1092h206q33 0 49-7t37-27l216-208H816q-22 0-34.5 3.5T752 1603z"/><glyph unicode="Ó" horiz-adv-x="1634" d="M94 733q0 165 52.5 303T294 1273.5t228 155 295 55.5 295.5-55.5 229-155T1489 1036t52-303-52-302.5-147.5-237-229-154T817-15 522 39.5t-228 154-147.5 237T94 733zm203 0q0-135 37-242t105-181 164-113.5T817 157q119 0 215 39.5T1196 310t104.5 181 36.5 242-36.5 242.5-104.5 182-164 114.5-215 40q-118 0-214-40t-164-114.5-105-182T297 733zm364 850l216 208q10 10 19 16.5t18 10.5 20.5 5.5 28.5 1.5h206l-301-221q-17-12-30.5-16.5T802 1583H661z"/><glyph unicode="Ô" horiz-adv-x="1634" d="M94 733q0 165 52.5 303T294 1273.5t228 155 295 55.5 295.5-55.5 229-155T1489 1036t52-303-52-302.5-147.5-237-229-154T817-15 522 39.5t-228 154-147.5 237T94 733zm203 0q0-135 37-242t105-181 164-113.5T817 157q119 0 215 39.5T1196 310t104.5 181 36.5 242-36.5 242.5-104.5 182-164 114.5-215 40q-118 0-214-40t-164-114.5-105-182T297 733zm189 850l243 215h180l244-215h-138q-12 0-26.5 3.5T965 1596l-133 98q-8 4-13 8-8-6-12-8l-133-98q-9-6-23.5-9.5T624 1583H486z"/><glyph unicode="Õ" horiz-adv-x="1634" d="M94 733q0 165 52.5 303T294 1273.5t228 155 295 55.5 295.5-55.5 229-155T1489 1036t52-303-52-302.5-147.5-237-229-154T817-15 522 39.5t-228 154-147.5 237T94 733zm203 0q0-135 37-242t105-181 164-113.5T817 157q119 0 215 39.5T1196 310t104.5 181 36.5 242-36.5 242.5-104.5 182-164 114.5-215 40q-118 0-214-40t-164-114.5-105-182T297 733zm236 852q0 44 11.5 81.5t33.5 64 54.5 42T705 1788q36 0 68.5-13.5t62-29 56-29T943 1703q36 0 55 21t20 59h100q0-44-11-81t-32.5-64-53.5-42-73-15q-36 0-68.5 13.5t-62.5 29-57 29-51 13.5q-35 0-54-22t-20-59H533z"/><glyph unicode="Ö" horiz-adv-x="1634" d="M94 733q0 165 52.5 303T294 1273.5t228 155 295 55.5 295.5-55.5 229-155T1489 1036t52-303-52-302.5-147.5-237-229-154T817-15 522 39.5t-228 154-147.5 237T94 733zm203 0q0-135 37-242t105-181 164-113.5T817 157q119 0 215 39.5T1196 310t104.5 181 36.5 242-36.5 242.5-104.5 182-164 114.5-215 40q-118 0-214-40t-164-114.5-105-182T297 733zm193 973q0 24 9 45t24.5 36 35.5 24.5 41 9.5q24 0 45-9.5t36-24.5 24.5-36 9.5-45q0-23-9.5-42.5t-24.5-35-36-24.5-45-9q-22 0-41.5 9t-35 24.5-24.5 35-9 42.5zm436 0q0 24 8.5 45t24 36 36 24.5 43.5 9.5 43.5-9.5 36-24.5 24.5-36 9-45q0-23-9-42.5t-24.5-35-36-24.5-43.5-9q-24 0-44 9t-35.5 24.5-24 35-8.5 42.5z"/><glyph unicode="×" d="M129 323l365 364-354 353 98 99 353-355 352 353 98-99-352-352 363-361-98-99-362 363-366-365z"/><glyph unicode="Ø" horiz-adv-x="1634" d="M94 733q0 165 52.5 303T294 1273.5t228 155 295 55.5q118 0 220.5-30t187.5-85l84 114q20 28 36.5 39.5t49.5 11.5h102l-176-241q105-100 162.5-242.5T1541 733q0-165-52-302.5t-147.5-237-229-154T817-15q-111 0-207 25T433 84L331-55q-23-30-52.5-43.5T219-112h-80l196 267Q220 255 157 402.5T94 733zm203 0q0-138 38.5-246T444 304l675 921q-61 43-137 65t-165 22q-118 0-214-40t-164-114.5-105-182T297 733zm242-505q119-72 278-71 119 0 215 39.5T1196 310t104.5 181 36.5 242q0 129-33 232t-95 177z"/><glyph unicode="Ù" horiz-adv-x="1495" d="M164 575v892h197V577q0-92 26.5-169t76-132.5 122-86.5T749 158t162.5 30.5 121 86 76 132T1135 575v892h197V575q0-127-40.5-235.5T1176 152 992.5 28 749-17 505 28 320.5 152t-116 188T164 575zm214 1250h206q33 0 49-7t37-27l216-208H744q-22 0-34.5 3.5T680 1603z"/><glyph unicode="Ú" horiz-adv-x="1495" d="M164 575v892h197V577q0-92 26.5-169t76-132.5 122-86.5T749 158t162.5 30.5 121 86 76 132T1135 575v892h197V575q0-127-40.5-235.5T1176 152 992.5 28 749-17 505 28 320.5 152t-116 188T164 575zm425 1008l216 208q10 10 19 16.5t18 10.5 20.5 5.5 28.5 1.5h206l-301-221q-17-12-30.5-16.5T730 1583H589z"/><glyph unicode="Û" horiz-adv-x="1495" d="M164 575v892h197V577q0-92 26.5-169t76-132.5 122-86.5T749 158t162.5 30.5 121 86 76 132T1135 575v892h197V575q0-127-40.5-235.5T1176 152 992.5 28 749-17 505 28 320.5 152t-116 188T164 575zm250 1008l243 215h180l244-215H943q-12 0-26.5 3.5T893 1596l-133 98q-8 4-13 8-8-6-12-8l-133-98q-9-6-23.5-9.5T552 1583H414z"/><glyph unicode="Ü" horiz-adv-x="1495" d="M164 575v892h197V577q0-92 26.5-169t76-132.5 122-86.5T749 158t162.5 30.5 121 86 76 132T1135 575v892h197V575q0-127-40.5-235.5T1176 152 992.5 28 749-17 505 28 320.5 152t-116 188T164 575zm254 1131q0 24 9 45t24.5 36 35.5 24.5 41 9.5q24 0 45-9.5t36-24.5 24.5-36 9.5-45q0-23-9.5-42.5t-24.5-35-36-24.5-45-9q-22 0-41.5 9t-35 24.5-24.5 35-9 42.5zm436 0q0 24 8.5 45t24 36 36 24.5 43.5 9.5 43.5-9.5 36-24.5 24.5-36 9-45q0-23-9-42.5t-24.5-35-36-24.5-43.5-9q-24 0-44 9t-35.5 24.5-24 35-8.5 42.5z"/><glyph unicode="Ý" horiz-adv-x="1288" d="M8 1467h174q27 0 42.5-13t26.5-33l336-570q20-36 34-67.5t25-62.5q11 32 24.5 63.5T705 851l334 570q9 16 25 31t42 15h176L743 584V0H546v584zm479 116l216 208q10 10 19 16.5t18 10.5 20.5 5.5 28.5 1.5h206l-301-221q-17-12-30.5-16.5T628 1583H487z"/><glyph unicode="Þ" horiz-adv-x="1251" d="M199 0v1467h197v-270h236q139 0 242-32t170.5-91.5 101-143.5 33.5-188q0-102-36-187t-105-146.5T866.5 313 632 279H396V0H199zm197 436h236q85 0 150 22.5t109 63 66.5 97T980 742q0 140-86.5 219T632 1040H396V436z"/><glyph unicode="ß" horiz-adv-x="1247" d="M190 0v1016q0 106 35.5 193t101 149.5T484 1455t205 34q105 0 182.5-31t128-78.5T1074 1276t24-109q0-61-22-105t-55-78-71.5-59.5-71-50T824 824t-22-59q0-40 27-66.5t68-49.5 88.5-47 88.5-60 68-88.5 27-131.5q0-80-29-142.5t-80-106T939.5 7 790-16q-99 0-180.5 35T467 110l42 69q8 13 20 20.5t29 7.5q18 0 38.5-14.5t49-32 67-31.5 92.5-14q45 0 81 13.5t61 37 38 56.5 13 71q0 57-28.5 93T898 448t-93 47.5-93 51.5-72 72.5T611 729q0 54 23 94.5t57.5 73 74.5 60 74 58.5 57.5 67 23.5 85q0 33-13 66.5t-41.5 60T792 1337t-110 17q-70 0-126.5-21.5t-97-64.5-62.5-107.5-22-150.5V0H190z"/><glyph unicode="à" horiz-adv-x="1038" d="M94 259q0 61 34 118t109 101 197 72.5T732 583v81q0 121-51.5 182.5T527 908q-67 0-112-17t-78.5-37.5T279 816t-48-17q-18 0-32 9.5T177 833l-33 58q86 83 185.5 124t220.5 41q87 0 154.5-29T818 947t69.5-123.5T911 664V0h-81q-27 0-43 8t-21 35l-21 96q-41-37-79.5-66T584 24 492-6 384-16Q324-16 271 .5T179 51t-62 85.5T94 259zm171 1225h173q34 0 50.5-11t30.5-34l152-248H567q-22 0-35 6.5t-27 22.5zm4-1217q0-41 13.5-70.5t36-48.5 53-27.5T438 112q48 0 88 9.5t75.5 27.5 67.5 43.5 63 58.5v216q-126-4-214-20t-143.5-41.5T294 345t-25-78z"/><glyph unicode="á" horiz-adv-x="1038" d="M94 259q0 61 34 118t109 101 197 72.5T732 583v81q0 121-51.5 182.5T527 908q-67 0-112-17t-78.5-37.5T279 816t-48-17q-18 0-32 9.5T177 833l-33 58q86 83 185.5 124t220.5 41q87 0 154.5-29T818 947t69.5-123.5T911 664V0h-81q-27 0-43 8t-21 35l-21 96q-41-37-79.5-66T584 24 492-6 384-16Q324-16 271 .5T179 51t-62 85.5T94 259zm175 8q0-41 13.5-70.5t36-48.5 53-27.5T438 112q48 0 88 9.5t75.5 27.5 67.5 43.5 63 58.5v216q-126-4-214-20t-143.5-41.5T294 345t-25-78zm158 924l151 248q14 24 31 34.5t50 10.5h178l-238-264q-14-15-28-22t-36-7H427z"/><glyph unicode="â" horiz-adv-x="1038" d="M94 259q0 61 34 118t109 101 197 72.5T732 583v81q0 121-51.5 182.5T527 908q-67 0-112-17t-78.5-37.5T279 816t-48-17q-18 0-32 9.5T177 833l-33 58q86 83 185.5 124t220.5 41q87 0 154.5-29T818 947t69.5-123.5T911 664V0h-81q-27 0-43 8t-21 35l-21 96q-41-37-79.5-66T584 24 492-6 384-16Q324-16 271 .5T179 51t-62 85.5T94 259zm132 938l228 270h170l229-270H731q-22 0-41 14l-131 129-18 18-16-18-132-129q-6-5-17.5-9.5T352 1197H226zm43-930q0-41 13.5-70.5t36-48.5 53-27.5T438 112q48 0 88 9.5t75.5 27.5 67.5 43.5 63 58.5v216q-126-4-214-20t-143.5-41.5T294 345t-25-78z"/><glyph unicode="ã" horiz-adv-x="1038" d="M94 259q0 61 34 118t109 101 197 72.5T732 583v81q0 121-51.5 182.5T527 908q-67 0-112-17t-78.5-37.5T279 816t-48-17q-18 0-32 9.5T177 833l-33 58q86 83 185.5 124t220.5 41q87 0 154.5-29T818 947t69.5-123.5T911 664V0h-81q-27 0-43 8t-21 35l-21 96q-41-37-79.5-66T584 24 492-6 384-16Q324-16 271 .5T179 51t-62 85.5T94 259zm150 972q0 49 13.5 89.5t38 69.5 58.5 45 74 16q36 0 67-15t58.5-32.5 51.5-32 48-14.5q37 0 57 21.5t21 66.5h110q0-48-12.5-88.5T792 1287t-57.5-44.5T660 1227q-36 0-67 14.5t-58.5 32T482 1306t-48 15q-74 0-76-90H244zm25-964q0-41 13.5-70.5t36-48.5 53-27.5T438 112q48 0 88 9.5t75.5 27.5 67.5 43.5 63 58.5v216q-126-4-214-20t-143.5-41.5T294 345t-25-78z"/><glyph unicode="ä" horiz-adv-x="1038" d="M94 259q0 61 34 118t109 101 197 72.5T732 583v81q0 121-51.5 182.5T527 908q-67 0-112-17t-78.5-37.5T279 816t-48-17q-18 0-32 9.5T177 833l-33 58q86 83 185.5 124t220.5 41q87 0 154.5-29T818 947t69.5-123.5T911 664V0h-81q-27 0-43 8t-21 35l-21 96q-41-37-79.5-66T584 24 492-6 384-16Q324-16 271 .5T179 51t-62 85.5T94 259zm146 1061q0 24 9.5 45t25.5 37 36 25.5 43 9.5q24 0 45-9.5t37-25.5 25.5-37 9.5-45-9.5-44.5T436 1240t-37-24.5-45-9.5q-23 0-43 9.5t-36 24.5-25.5 35.5-9.5 44.5zm29-1053q0-41 13.5-70.5t36-48.5 53-27.5T438 112q48 0 88 9.5t75.5 27.5 67.5 43.5 63 58.5v216q-126-4-214-20t-143.5-41.5T294 345t-25-78zm339 1053q0 24 9 45t24.5 37 36.5 25.5 45 9.5 44.5-9.5T804 1402t25-37 9-45-9-44.5-25-35.5-37-24.5-44-9.5q-24 0-45 9.5t-36.5 24.5-24.5 35.5-9 44.5z"/><glyph unicode="å" horiz-adv-x="1038" d="M94 259q0 61 34 118t109 101 197 72.5T732 583v81q0 121-51.5 182.5T527 908q-67 0-112-17t-78.5-37.5T279 816t-48-17q-18 0-32 9.5T177 833l-33 58q86 83 185.5 124t220.5 41q87 0 154.5-29T818 947t69.5-123.5T911 664V0h-81q-27 0-43 8t-21 35l-21 96q-41-37-79.5-66T584 24 492-6 384-16Q324-16 271 .5T179 51t-62 85.5T94 259zm175 8q0-41 13.5-70.5t36-48.5 53-27.5T438 112q48 0 88 9.5t75.5 27.5 67.5 43.5 63 58.5v216q-126-4-214-20t-143.5-41.5T294 345t-25-78zm67 1080q0 43 16 77.5t44.5 60 65 39.5 77.5 14q42 0 79.5-14t66-39.5 45-60T746 1347q0-42-16.5-77t-45-59.5-66-38.5-79.5-14q-41 0-77.5 14t-65 38.5T352 1270t-16 77zm102 0q0-45 27.5-74t75.5-29q46 0 74.5 29t28.5 74q0 46-28.5 74.5T541 1450q-48 0-75.5-28.5T438 1347z"/><glyph unicode="æ" horiz-adv-x="1671" d="M94 273q0 61 34 121t109 107 197 77 298 34v52q0 121-51.5 185T527 913q-67 0-112-17.5t-78.5-39T279 817t-48-18q-18 0-32 9.5T177 833l-33 58q86 83 179 124t208 41q123 0 198-52.5T838 858q55 90 143.5 143t212.5 53q84 0 156-33t125-95.5 83-152 30-204.5q0-42-8-56.5t-34-14.5H904q4-93 27.5-162.5t63-115.5 93.5-68.5 120-22.5q71 0 118 15t78.5 33.5 51 33T1491 225q14 0 23.5-4.5T1530 208l48-63q-34-41-78.5-71t-95-49.5-105-29T1192-14q-120 0-217.5 57.5T820 220q-28-63-72.5-108T649 38 534-3.5 413-16q-71 0-129.5 17.5T182.5 55 117 145.5 94 273zm175 10q0-89 51.5-130T455 112q58 0 108.5 18t88 56 59 94.5T732 413v85q-126-5-214-23t-143.5-47-80.5-65.5-25-79.5zm637 328h520q0 67-15.5 124t-46.5 97.5-75.5 64T1187 920q-62 0-111.5-21t-85-61-56.5-97.5T906 611z"/><glyph unicode="ç" horiz-adv-x="956" d="M76 519q0 116 32 214t94 169.5T355 1014t209 40q109 0 193-35.5T905 919l-48-66q-8-11-16-17.5t-24-6.5q-15 0-33 13t-45.5 28.5-67 28T574 911q-76 0-134-27t-97.5-78T283 682t-20-163q0-94 21.5-167T345 229t95-76 125-26q67 0 110 16t71.5 35.5 47 35T830 229q11 0 20-4.5t15-12.5l51-67Q856 71 769 33.5T583-12l-18-60q92-20 133.5-55.5T740-218q0-33-16-59t-45.5-44.5-70.5-28-90-9.5q-42 0-80 8.5T369-328l17 57q7 18 24 18 6 0 14-3.5t19.5-8 27.5-8 38-3.5q43 0 65 16.5t22 43.5q0 19-11.5 32.5T552-161t-51.5 15.5T431-134l38 124Q384 1 312 41.5t-124.5 108-82 160.5T76 519z"/><glyph unicode="è" horiz-adv-x="1073" d="M76 540q0 109 33 203t95.5 163T357 1014.5t203 39.5q93 0 172-31.5T868.5 932 958 786.5 990 590q0-43-9-57.5T946 518H256q2-98 26.5-171T350 225.5 452.5 153 586 129q69 0 118.5 16t85 34.5 59.5 34 42 15.5q23 0 35-17l51-67q-34-41-81-71T795 24.5t-111-29T570-14q-108 0-198 36T216 128.5t-103 174T76 540zm186 92h564q0 63-17 116t-51 91.5-83 59.5-111 21q-132 0-207.5-76.5T262 632zm27 852h173q34 0 50.5-11t30.5-34l152-248H591q-22 0-35 6.5t-27 22.5z"/><glyph unicode="é" horiz-adv-x="1073" d="M76 540q0 109 33 203t95.5 163T357 1014.5t203 39.5q93 0 172-31.5T868.5 932 958 786.5 990 590q0-43-9-57.5T946 518H256q2-98 26.5-171T350 225.5 452.5 153 586 129q69 0 118.5 16t85 34.5 59.5 34 42 15.5q23 0 35-17l51-67q-34-41-81-71T795 24.5t-111-29T570-14q-108 0-198 36T216 128.5t-103 174T76 540zm186 92h564q0 63-17 116t-51 91.5-83 59.5-111 21q-132 0-207.5-76.5T262 632zm189 559l151 248q14 24 31 34.5t50 10.5h178l-238-264q-14-15-28-22t-36-7H451z"/><glyph unicode="ê" horiz-adv-x="1073" d="M76 540q0 109 33 203t95.5 163T357 1014.5t203 39.5q93 0 172-31.5T868.5 932 958 786.5 990 590q0-43-9-57.5T946 518H256q2-98 26.5-171T350 225.5 452.5 153 586 129q69 0 118.5 16t85 34.5 59.5 34 42 15.5q23 0 35-17l51-67q-34-41-81-71T795 24.5t-111-29T570-14q-108 0-198 36T216 128.5t-103 174T76 540zm174 657l228 270h170l229-270H755q-22 0-41 14l-131 129-18 18-16-18-132-129q-6-5-17.5-9.5T376 1197H250zm12-565h564q0 63-17 116t-51 91.5-83 59.5-111 21q-132 0-207.5-76.5T262 632z"/><glyph unicode="ë" horiz-adv-x="1073" d="M76 540q0 109 33 203t95.5 163T357 1014.5t203 39.5q93 0 172-31.5T868.5 932 958 786.5 990 590q0-43-9-57.5T946 518H256q2-98 26.5-171T350 225.5 452.5 153 586 129q69 0 118.5 16t85 34.5 59.5 34 42 15.5q23 0 35-17l51-67q-34-41-81-71T795 24.5t-111-29T570-14q-108 0-198 36T216 128.5t-103 174T76 540zm186 92h564q0 63-17 116t-51 91.5-83 59.5-111 21q-132 0-207.5-76.5T262 632zm2 688q0 24 9.5 45t25.5 37 36 25.5 43 9.5q24 0 45-9.5t37-25.5 25.5-37 9.5-45-9.5-44.5T460 1240t-37-24.5-45-9.5q-23 0-43 9.5t-36 24.5-25.5 35.5-9.5 44.5zm368 0q0 24 9 45t24.5 37 36.5 25.5 45 9.5 44.5-9.5T828 1402t25-37 9-45-9-44.5-25-35.5-37-24.5-44-9.5q-24 0-45 9.5t-36.5 24.5-24.5 35.5-9 44.5z"/><glyph unicode="ì" horiz-adv-x="524" d="M-7 1484h173q34 0 50.5-11t30.5-34l152-248H295q-22 0-35 6.5t-27 22.5zM170 0v1037h182V0H170z"/><glyph unicode="í" horiz-adv-x="524" d="M155 1191l151 248q14 24 31 34.5t50 10.5h178l-238-264q-14-15-28-22t-36-7H155zM170 0v1037h182V0H170z"/><glyph unicode="î" horiz-adv-x="524" d="M-47 1197l228 270h170l229-270H458q-22 0-41 14l-131 129-18 18-16-18-132-129q-6-5-17.5-9.5T79 1197H-47zM170 0v1037h182V0H170z"/><glyph unicode="ï" horiz-adv-x="524" d="M-32 1320q0 24 9.5 45T3 1402t36 25.5 43 9.5q24 0 45-9.5t37-25.5 25.5-37 9.5-45-9.5-44.5T164 1240t-37-24.5-45-9.5q-23 0-43 9.5T3 1240t-25.5 35.5-9.5 44.5zM170 0v1037h182V0H170zm166 1320q0 24 9 45t24.5 37 36.5 25.5 45 9.5 44.5-9.5T532 1402t25-37 9-45-9-44.5-25-35.5-37-24.5-44-9.5q-24 0-45 9.5t-36.5 24.5-24.5 35.5-9 44.5z"/><glyph unicode="ð" horiz-adv-x="1132" d="M78 477q0 96 31.5 181.5t91 150 144 102.5T536 949q102 0 192.5-44T886 772q-20 139-80.5 236.5T649 1171l-188-138-34 58q-4 7-6.5 13.5T418 1117q0 23 23 38l106 74q-46 20-98 37.5T339 1298q-18 5-31 19t-13 38q0 15 5 29l21 64q98-16 190-47t175-80l171 125 36-58q8-13 8-25 0-22-22-38l-100-69q61-50 112-113.5t87-142.5 56-174 20-208q0-146-32-262.5T927 157 770.5 31 554-13q-100 0-187 33.5T216 117 115 271 78 477zm182-2q0-83 23.5-148T348 218t95-67 115-23q73 0 132 27.5T790 239t65 140.5T882 578q-16 44-43 85.5T773.5 737t-89 51T570 807q-77 0-134.5-25.5t-96.5-70T280 606t-20-131z"/><glyph unicode="ñ" horiz-adv-x="1138" d="M150 0v1037h108q39 0 49-38l15-112q68 75 151 121t193 46q85 0 150-28.5t108.5-80 66-124T1013 660V0H830v660q0 118-53.5 183T612 908q-81 0-151-39T332 764V0H150zm132 1231q0 49 13.5 89.5t38 69.5 58.5 45 74 16q36 0 67-15t58.5-32.5 51.5-32 48-14.5q37 0 57 21.5t21 66.5h110q0-48-12.5-88.5T830 1287t-57.5-44.5T698 1227q-36 0-67 14.5t-58.5 32T520 1306t-48 15q-74 0-76-90H282z"/><glyph unicode="ò" horiz-adv-x="1138" d="M74 519q0 122 34.5 221t99 168.5 156 107.5 205.5 38 205.5-38T930 908.5t98.5-168.5 34.5-221q0-123-34.5-221T930 130 774.5 23 569-14 363.5 23t-156 107-99 168T74 519zm188-1q0-92 19-164.5T338.5 231t95.5-76.5T569 128q154 0 229.5 103T874 518q0 185-75.5 288.5T569 910q-78 0-135-26.5T338.5 807 281 683.5 262 518zm34 966h173q34 0 50.5-11t30.5-34l152-248H598q-22 0-35 6.5t-27 22.5z"/><glyph unicode="ó" horiz-adv-x="1138" d="M74 519q0 122 34.5 221t99 168.5 156 107.5 205.5 38 205.5-38T930 908.5t98.5-168.5 34.5-221q0-123-34.5-221T930 130 774.5 23 569-14 363.5 23t-156 107-99 168T74 519zm188-1q0-92 19-164.5T338.5 231t95.5-76.5T569 128q154 0 229.5 103T874 518q0 185-75.5 288.5T569 910q-78 0-135-26.5T338.5 807 281 683.5 262 518zm196 673l151 248q14 24 31 34.5t50 10.5h178l-238-264q-14-15-28-22t-36-7H458z"/><glyph unicode="ô" horiz-adv-x="1138" d="M74 519q0 122 34.5 221t99 168.5 156 107.5 205.5 38 205.5-38T930 908.5t98.5-168.5 34.5-221q0-123-34.5-221T930 130 774.5 23 569-14 363.5 23t-156 107-99 168T74 519zm183 678l228 270h170l229-270H762q-22 0-41 14l-131 129-18 18-16-18-132-129q-6-5-17.5-9.5T383 1197H257zm5-679q0-92 19-164.5T338.5 231t95.5-76.5T569 128q154 0 229.5 103T874 518q0 185-75.5 288.5T569 910q-78 0-135-26.5T338.5 807 281 683.5 262 518z"/><glyph unicode="õ" horiz-adv-x="1138" d="M74 519q0 122 34.5 221t99 168.5 156 107.5 205.5 38 205.5-38T930 908.5t98.5-168.5 34.5-221q0-123-34.5-221T930 130 774.5 23 569-14 363.5 23t-156 107-99 168T74 519zm188-1q0-92 19-164.5T338.5 231t95.5-76.5T569 128q154 0 229.5 103T874 518q0 185-75.5 288.5T569 910q-78 0-135-26.5T338.5 807 281 683.5 262 518zm13 713q0 49 13.5 89.5t38 69.5 58.5 45 74 16q36 0 67-15t58.5-32.5 51.5-32 48-14.5q37 0 57 21.5t21 66.5h110q0-48-12.5-88.5T823 1287t-57.5-44.5T691 1227q-36 0-67 14.5t-58.5 32T513 1306t-48 15q-74 0-76-90H275z"/><glyph unicode="ö" horiz-adv-x="1138" d="M74 519q0 122 34.5 221t99 168.5 156 107.5 205.5 38 205.5-38T930 908.5t98.5-168.5 34.5-221q0-123-34.5-221T930 130 774.5 23 569-14 363.5 23t-156 107-99 168T74 519zm188-1q0-92 19-164.5T338.5 231t95.5-76.5T569 128q154 0 229.5 103T874 518q0 185-75.5 288.5T569 910q-78 0-135-26.5T338.5 807 281 683.5 262 518zm9 802q0 24 9.5 45t25.5 37 36 25.5 43 9.5q24 0 45-9.5t37-25.5 25.5-37 9.5-45-9.5-44.5T467 1240t-37-24.5-45-9.5q-23 0-43 9.5t-36 24.5-25.5 35.5-9.5 44.5zm368 0q0 24 9 45t24.5 37 36.5 25.5 45 9.5 44.5-9.5T835 1402t25-37 9-45-9-44.5-25-35.5-37-24.5-44-9.5q-24 0-45 9.5t-36.5 24.5-24.5 35.5-9 44.5z"/><glyph unicode="÷" d="M102 618v139h981V618H102zm363-296q0 27 9.5 50t26.5 40.5 40 28 51 10.5q27 0 50-10.5t40-28 27.5-41T720 322q0-28-10.5-51T682 230.5t-40.5-27T592 194q-28 0-51 9.5t-40 27-26.5 40.5-9.5 51zm0 729q0 27 9.5 50t26.5 40.5 40 28 51 10.5q27 0 50-10.5t40-28 27.5-41T720 1051q0-28-10.5-51T682 959.5t-40.5-27T592 923q-28 0-51 9.5t-40 27-26.5 40.5-9.5 51z"/><glyph unicode="ø" horiz-adv-x="1138" d="M66-78l148 201q-68 71-103.5 170T75 519q0 122 34.5 221t99 168.5T365 1016t205 38q81 0 150.5-19.5T847 979l69 93q20 28 37 39.5t49 11.5h93L934 905q62-70 96-167.5t34-218.5q0-123-34.5-221T931 130 775.5 23 570-14q-78 0-145 17T303 53l-56-76q-23-30-53-42.5T134-78H66zm186 596q0-164 60-263l447 604q-75 57-189 57-78 0-137-27.5T333.5 810t-61-125.5T252 518zm138-346q71-49 180-49 77 0 136 27t99.5 78.5 61 124.5T887 518q0 155-53 253z"/><glyph unicode="ù" horiz-adv-x="1138" d="M125 376v661h182V376q0-118 54.5-182.5T525 129q80 0 150.5 38T806 272v765h182V0H880q-39 0-50 38l-14 112Q748 75 664.5 29.5T472-16q-85 0-150 28T213 91t-66 124-22 161zm165 1108h173q34 0 50.5-11t30.5-34l152-248H592q-22 0-35 6.5t-27 22.5z"/><glyph unicode="ú" horiz-adv-x="1138" d="M125 376v661h182V376q0-118 54.5-182.5T525 129q80 0 150.5 38T806 272v765h182V0H880q-39 0-50 38l-14 112Q748 75 664.5 29.5T472-16q-85 0-150 28T213 91t-66 124-22 161zm327 815l151 248q14 24 31 34.5t50 10.5h178l-238-264q-14-15-28-22t-36-7H452z"/><glyph unicode="û" horiz-adv-x="1138" d="M125 376v661h182V376q0-118 54.5-182.5T525 129q80 0 150.5 38T806 272v765h182V0H880q-39 0-50 38l-14 112Q748 75 664.5 29.5T472-16q-85 0-150 28T213 91t-66 124-22 161zm126 821l228 270h170l229-270H756q-22 0-41 14l-131 129-18 18-16-18-132-129q-6-5-17.5-9.5T377 1197H251z"/><glyph unicode="ü" horiz-adv-x="1138" d="M125 376v661h182V376q0-118 54.5-182.5T525 129q80 0 150.5 38T806 272v765h182V0H880q-39 0-50 38l-14 112Q748 75 664.5 29.5T472-16q-85 0-150 28T213 91t-66 124-22 161zm140 944q0 24 9.5 45t25.5 37 36 25.5 43 9.5q24 0 45-9.5t37-25.5 25.5-37 9.5-45-9.5-44.5T461 1240t-37-24.5-45-9.5q-23 0-43 9.5t-36 24.5-25.5 35.5-9.5 44.5zm368 0q0 24 9 45t24.5 37 36.5 25.5 45 9.5 44.5-9.5T829 1402t25-37 9-45-9-44.5-25-35.5-37-24.5-44-9.5q-24 0-45 9.5t-36.5 24.5-24.5 35.5-9 44.5z"/><glyph unicode="ý" horiz-adv-x="1048" d="M14 1037h158q24 0 37-11.5t19-26.5l278-653q9-23 15.5-45t12.5-46q7 24 14 46.5t16 45.5l270 652q6 16 20.5 27t32.5 11h145L454-306q-9-20-23-32.5T388-351H253L442 60zm420 154l151 248q14 24 31 34.5t50 10.5h178l-238-264q-14-15-28-22t-36-7H434z"/><glyph unicode="þ" horiz-adv-x="1130" d="M150-351v1859h182V887q65 76 148.5 121.5T672 1054q89 0 161.5-34t124-101 79-166 27.5-228q0-115-31-213.5T945 141 804.5 27.5 616-14q-97 0-164.5 35T332 121v-472H150zm182 601q50-68 110-95.5T575 127q144 0 222.5 103.5T876 525q0 101-18 174t-52 119.5-83.5 68T611 908q-89 0-156-41T332 752V250z"/><glyph unicode="ÿ" horiz-adv-x="1048" d="M14 1037h158q24 0 37-11.5t19-26.5l278-653q9-23 15.5-45t12.5-46q7 24 14 46.5t16 45.5l270 652q6 16 20.5 27t32.5 11h145L454-306q-9-20-23-32.5T388-351H253L442 60zm233 283q0 24 9.5 45t25.5 37 36 25.5 43 9.5q24 0 45-9.5t37-25.5 25.5-37 9.5-45-9.5-44.5T443 1240t-37-24.5-45-9.5q-23 0-43 9.5t-36 24.5-25.5 35.5-9.5 44.5zm368 0q0 24 9 45t24.5 37 36.5 25.5 45 9.5 44.5-9.5T811 1402t25-37 9-45-9-44.5-25-35.5-37-24.5-44-9.5q-24 0-45 9.5t-36.5 24.5-24.5 35.5-9 44.5z"/><glyph unicode="Œ" horiz-adv-x="2244" d="M94 733q0 165 47 303t133 237.5 206 155 265 55.5q165 0 295-69t216-193v245h881v-161h-704V818h570V663h-570V162h704V0h-881v246q-86-123-216-191.5T745-14q-145 0-265 54.5T274 194 141 430.5 94 733zm203 0q0-135 33.5-243T425 306.5t147.5-115T766 152q106 0 193 39.5t147.5 115T1200 490t33 243-33 243-93.5 184T959 1276.5 766 1317t-193-40.5T425 1160t-94.5-184T297 733z"/><glyph unicode="œ" horiz-adv-x="1775" d="M74 519q0 122 32.5 221T200 908.5 346.5 1016t190.5 38q134 0 231-62t152-175q51 108 146.5 172.5T1298 1054q84 0 156.5-33t125-95.5 83-152T1693 569q0-42-8.5-56.5T1651 498h-642q4-93 27.5-162.5t63-115.5 93-68.5T1313 129q62 0 107.5 16t78.5 34.5 56 34 41 15.5q22 0 34-17l52-67q-34-41-78-71t-95-49.5-105-29-108-9.5q-122 0-219.5 58.5T923 225Q868 110 769 48T529-14q-102 0-186 37T199 130t-92.5 168T74 519zm188-1q0-184 70.5-287T547 128q142 0 211.5 103T828 518q0 92-17 165.5T759 807t-88.5 76.5T547 910q-73 0-126-26.5T332.5 807t-53-123.5T262 518zm749 93h520q0 67-16 124t-46.5 97.5-75.5 64-101 23.5q-62 0-111-21t-84.5-61-57-97.5T1011 611z"/><glyph unicode="Ÿ" horiz-adv-x="1288" d="M8 1467h174q27 0 42.5-13t26.5-33l336-570q20-36 34-67.5t25-62.5q11 32 24.5 63.5T705 851l334 570q9 16 25 31t42 15h176L743 584V0H546v584zm308 239q0 24 9 45t24.5 36 35.5 24.5 41 9.5q24 0 45-9.5t36-24.5 24.5-36 9.5-45q0-23-9.5-42.5t-24.5-35-36-24.5-45-9q-22 0-41.5 9t-35 24.5-24.5 35-9 42.5zm436 0q0 24 8.5 45t24 36 36 24.5 43.5 9.5 43.5-9.5 36-24.5 24.5-36 9-45q0-23-9-42.5t-24.5-35-36-24.5-43.5-9q-24 0-44 9t-35.5 24.5-24 35-8.5 42.5z"/><glyph unicode="ˆ" horiz-adv-x="628" d="M0 1197l228 270h170l229-270H505q-22 0-41 14l-131 129-18 18-16-18-132-129q-6-5-17.5-9.5T126 1197H0z"/><glyph unicode="˜" horiz-adv-x="628" d="M18 1231q0 49 13.5 89.5t38 69.5 58.5 45 74 16q36 0 67-15t58.5-32.5 51.5-32 48-14.5q37 0 57 21.5t21 66.5h110q0-48-12.5-88.5T566 1287t-57.5-44.5T434 1227q-36 0-67 14.5t-58.5 32T256 1306t-48 15q-74 0-76-90H18z"/><glyph horiz-adv-x="940"/><glyph horiz-adv-x="1881"/><glyph horiz-adv-x="940"/><glyph horiz-adv-x="1881"/><glyph horiz-adv-x="627"/><glyph horiz-adv-x="470"/><glyph horiz-adv-x="313"/><glyph horiz-adv-x="313"/><glyph horiz-adv-x="235"/><glyph horiz-adv-x="376"/><glyph horiz-adv-x="104"/><glyph unicode="‐" horiz-adv-x="710" d="M102 537v154h506V537H102z"/><glyph unicode="‑" horiz-adv-x="710" d="M102 537v154h506V537H102z"/><glyph unicode="‒" horiz-adv-x="710" d="M102 537v154h506V537H102z"/><glyph unicode="–" horiz-adv-x="1138" d="M160 538v133h819V538H160z"/><glyph unicode="—" horiz-adv-x="1681" d="M160 538v133h1362V538H160z"/><glyph unicode="‘" horiz-adv-x="434" d="M59 1234q0 92 46 176.5T232 1566l57-35q8-5 10.5-11.5t2.5-12.5q0-14-10-24-16-20-31.5-43t-28-48-19.5-52.5-7-58.5q0-33 9.5-67.5T249 1140q7-11 7-24 0-25-28-35l-111-45q-30 49-44 99t-14 99z"/><glyph unicode="’" horiz-adv-x="434" d="M92 1073q0 14 10 25 16 19 32 42t28 48 19 53 7 58q0 33-9.5 68t-33.5 74q-7 11-7 22 0 25 28 36l112 45q30-49 43-98t13-98q0-93-45.5-178T162 1015l-57 35q-8 5-10.5 11t-2.5 12z"/><glyph unicode="‚" horiz-adv-x="434" d="M92-224q0 14 10 24 16 19 32 42.5t28 48.5 19 52.5T188 2q0 33-9.5 67.5T145 143q-7 11-7 23 0 25 28 36l112 45q30-49 43-98.5T334 50q0-93-45.5-177.5T162-283l-57 35q-8 5-10.5 11.5T92-224z"/><glyph unicode="“" horiz-adv-x="745" d="M59 1234q0 92 46 176.5T232 1566l57-35q8-5 10.5-11.5t2.5-12.5q0-14-10-24-16-20-31.5-43t-28-48-19.5-52.5-7-58.5q0-33 9.5-67.5T249 1140q7-11 7-24 0-25-28-35l-111-45q-30 49-44 99t-14 99zm312 0q0 92 45.5 176.5T544 1566l56-35q8-5 10.5-11.5t2.5-12.5q0-14-10-24-16-20-31.5-43t-28-48-19.5-52.5-7-58.5q0-33 10-67.5t33-73.5q7-11 7-24 0-25-27-35l-112-45q-30 49-43.5 99t-13.5 99z"/><glyph unicode="”" horiz-adv-x="745" d="M92 1073q0 14 10 25 16 19 32 42t28 48 19 53 7 58q0 33-9.5 68t-33.5 74q-7 11-7 22 0 25 28 36l112 45q30-49 43-98t13-98q0-93-45.5-178T162 1015l-57 35q-8 5-10.5 11t-2.5 12zm311 0q0 14 11 25 16 19 31.5 42t27.5 48 19.5 53 7.5 58q0 33-10 68t-33 74q-7 11-7 22 0 25 27 36l112 45q30-49 43-98t13-98q0-93-45.5-178T473 1015l-56 35q-8 5-11 11t-3 12z"/><glyph unicode="„" horiz-adv-x="745" d="M92-224q0 14 10 24 16 19 32 42.5t28 48.5 19 52.5T188 2q0 33-9.5 67.5T145 143q-7 11-7 23 0 25 28 36l112 45q30-49 43-98.5T334 50q0-93-45.5-177.5T162-283l-57 35q-8 5-10.5 11.5T92-224zm311 0q0 14 11 24 16 19 31.5 42.5T473-109t19.5 52.5T500 2q0 33-10 67.5T457 143q-7 11-7 23 0 25 27 36l112 45q30-49 43-98.5T645 50q0-93-45.5-177.5T473-283l-56 35q-8 5-11 11.5t-3 12.5z"/><glyph unicode="•" d="M213 609q0 79 30 148.5T324.5 879 445 961t147 30q79 0 148.5-30t121-82 82-121.5T974 609t-30.5-148-82-120-121-81.5T592 229q-78 0-147 30.5T324.5 341 243 461t-30 148z"/><glyph unicode="…" horiz-adv-x="1488" d="M90 113q0 27 10 50t26.5 40.5 40 28T217 242t50.5-10.5 41-28 27-41T345 113q0-28-9.5-51t-27-40.5-41-27T217-15t-50.5 9.5-40 27T100 62t-10 51zm526 0q0 27 10 50t27 40.5 40.5 28T743 242q27 0 50.5-10.5t41-28 27-41T871 113q0-28-9.5-51t-27-40.5-41-27T743-15t-50 9.5-40 27T626 62t-10 51zm528 0q0 27 9.5 50t26.5 40.5 40.5 28T1271 242t50.5-10.5 40.5-28 27-41 10-49.5q0-28-10-51t-27-40.5-41-27-50-9.5q-27 0-50.5 9.5t-40.5 27-26.5 40.5-9.5 51z"/><glyph horiz-adv-x="376"/><glyph unicode="‹" horiz-adv-x="647" d="M141 530v24l255 398 60-28q14-7 21-18.5t7-24.5q0-17-10-34L311 580q-14-25-28-38 15-14 28-37l163-267q5-8 7.5-17.5T484 203q0-29-28-42l-60-29z"/><glyph unicode="›" horiz-adv-x="647" d="M154 203q0 17 10 35l163 267q13 25 27 37-12 11-27 38L164 847q-10 17-10 35 0 29 28 42l60 28 255-398v-24L242 132l-60 29q-29 13-28 42z"/><glyph horiz-adv-x="470"/><glyph unicode="€" d="M35 566v105h137q-1 15-1 30.5V733q0 20 .5 41.5T173 816H35v105h150q20 129 69 232.5t121 177T541.5 1443t204.5 39q137 0 234.5-51.5T1150 1289l-63-69q-8-9-16-16t-22-7q-17 0-36.5 19.5t-51 43-81.5 43-126 19.5q-150 0-248.5-102.5T374 921h560v-57q0-18-14-33t-38-15H361q-1-20-1.5-40.5T359 733v-31.5l1-30.5h479v-58q0-17-14.5-32T785 566H370q29-211 127-316.5T744 144q55 0 97.5 11t73 27.5T967 218t38.5 35 29.5 27 25 11q8 0 14-3.5t15-11.5l76-71q-72-104-178-162T734-15q-119 0-214 40.5T355.5 141t-114 183T180 566H35z"/><glyph unicode="™" horiz-adv-x="1474" d="M66 1360v107h497v-107H379V861H250v499H66zm596-499v606h108q17 0 24.5-4t18.5-17l173-310q6-14 12-27t10-28q5 14 9 27t12 28l173 310q9 13 17.5 17t24.5 4h109V861h-113v374l9 77-187-344q-13-29-45-29h-19q-32 0-44 29l-188 341 8-74V861H662z"/><glyph unicode="◼" horiz-adv-x="1038" d="M0 0v1039h1039V0H0z"/></font>
</defs>
</svg>
